<?xml version="1.0" standalone="no"?>
<!DOCTYPE svg PUBLIC "-//W3C//DTD SVG 1.1//EN" "http://www.w3.org/Graphics/SVG/1.1/DTD/svg11.dtd" >
<svg xmlns="http://www.w3.org/2000/svg" xmlns:xlink="http://www.w3.org/1999/xlink" version="1.1">
<metadata>
Created by FontForge 20170731 at Fri Aug  2 22:32:41 2019
 By Aleksey,,,
Copyright (c) 2015-2019 by Typetype. Designers Yulia Gonina and Ivan Gladkikh, technical designers Kseniya Karataeva, Anna Tikhonova, Nadyr Rakhimov, Maria Mizeritskaya. New remastered version created in 2019 by Yulia Gonina. All rights reserved. |DCNT
</metadata>
<defs>
<font id="TTChocolates-BoldItalic" horiz-adv-x="578" >
  <font-face 
    font-family="TT Chocolates"
    font-weight="700"
    font-style="italic"
    font-stretch="normal"
    units-per-em="1000"
    panose-1="2 0 8 3 3 0 0 9 0 3"
    ascent="800"
    descent="-200"
    x-height="460"
    cap-height="670"
    bbox="-340 -289 1488 1036"
    underline-thickness="20"
    underline-position="-190"
    slope="-10"
    unicode-range="U+000D-FB06"
  />
<missing-glyph horiz-adv-x="0" 
 />
    <glyph glyph-name="ff" unicode="ff" horiz-adv-x="665" 
d="M152 352h-70l19 108h70l14 82q14 78 63 123t121 45q91 0 147 -64l-83 -86q-23 33 -58 33q-48 0 -58 -64l-12 -69h167l14 82q14 78 63 123t121 45q91 0 147 -64l-83 -86q-23 33 -58 33q-48 0 -58 -64l-12 -69h130l-19 -108h-130l-62 -352h-134l62 352h-167l-62 -352h-134z
" />
    <glyph glyph-name="fi" unicode="fi" horiz-adv-x="569" 
d="M152 352h-70l19 108h70l5 33q16 97 80.5 157t156.5 60q120 0 191 -84l-93 -86q-42 53 -98 53q-39 0 -66.5 -27.5t-35.5 -73.5l-6 -32h290l-81 -460h-134l62 352h-156l-62 -352h-134z" />
    <glyph glyph-name="fl" unicode="fl" horiz-adv-x="570" 
d="M152 352h-70l19 108h70l9 59q16 87 78 139t148 52q90 0 144 -52t54 -134q0 -9 -2 -25l-87 -499h-134l88 502q0 4 1 6q0 1 0.5 4.5t0.5 4.5q0 33 -19.5 54.5t-52.5 21.5q-32 0 -56 -23t-30 -60l-8 -50h99l-19 -108h-99l-62 -352h-134z" />
    <glyph glyph-name="ffi" unicode="ffi" horiz-adv-x="871" 
d="M152 352h-70l19 108h70l14 82q14 78 63 123t121 45q91 0 147 -64l-83 -86q-23 33 -58 33q-48 0 -58 -64l-12 -69h168l5 33q16 97 80.5 157t156.5 60q120 0 191 -84l-93 -86q-42 53 -98 53q-39 0 -66.5 -27.5t-35.5 -73.5l-6 -32h290l-81 -460h-134l62 352h-156l-62 -352
h-134l62 352h-168l-62 -352h-134z" />
    <glyph glyph-name="ffl" unicode="ffl" horiz-adv-x="871" 
d="M152 352h-70l19 108h70l14 82q14 78 63 123t121 45q91 0 147 -64l-83 -86q-23 33 -58 33q-48 0 -58 -64l-12 -69h168l9 59q16 87 78 139t148 52q90 0 144 -52t54 -134q0 -9 -2 -25l-87 -499h-134l88 502q0 4 1 6q0 1 0.5 4.5t0.5 4.5q0 33 -19.5 54.5t-52.5 21.5
q-32 0 -56 -23t-30 -60l-8 -50h99l-19 -108h-99l-62 -352h-134l62 352h-168l-62 -352h-134z" />
    <glyph glyph-name="f_f_j" unicode="ffj" horiz-adv-x="871" 
d="M624 -250q-62 0 -105 37l67 108q18 -20 34 -20q37 0 48 49l76 428h-157l-62 -352h-134l62 352h-167l-62 -352h-134l62 352h-70l19 108h70l14 82q14 78 63 123t121 45q91 0 147 -64l-83 -86q-23 33 -58 33q-48 0 -58 -64l-12 -69h167l5 33q16 97 80.5 157t156.5 60
q120 0 191 -84l-93 -86q-42 53 -98 53q-39 0 -66.5 -27.5t-35.5 -73.5l-6 -32h291l-98 -551q-13 -74 -60 -116.5t-115 -42.5z" />
    <glyph glyph-name="f_j" unicode="fj" horiz-adv-x="570" 
d="M323 -250q-62 0 -105 37l67 108q18 -20 34 -20q37 0 48 49l76 428h-157l-62 -352h-134l62 352h-70l19 108h70l5 33q16 97 80.5 157t156.5 60q120 0 191 -84l-93 -86q-42 53 -98 53q-39 0 -66.5 -27.5t-35.5 -73.5l-6 -32h291l-98 -551q-13 -74 -60 -116.5t-115 -42.5z
" />
    <glyph glyph-name=".notdef" horiz-adv-x="0" 
 />
    <glyph glyph-name=".null" horiz-adv-x="0" 
 />
    <glyph glyph-name="nonmarkingreturn" horiz-adv-x="333" 
 />
    <glyph glyph-name="NULL" horiz-adv-x="0" 
 />
    <glyph glyph-name="NULL" horiz-adv-x="0" 
 />
    <glyph glyph-name="CR" unicode="&#xd;" horiz-adv-x="0" 
 />
    <glyph glyph-name="space" unicode=" " horiz-adv-x="220" 
 />
    <glyph glyph-name="exclam" unicode="!" horiz-adv-x="282" 
d="M147 -9q-33 0 -54.5 21t-21.5 52q0 37 26.5 63.5t61.5 26.5q30 0 52.5 -21t22.5 -53q0 -38 -25.5 -63.5t-61.5 -25.5zM189 670h141l-100 -457h-104z" />
    <glyph glyph-name="quotedbl" unicode="&#x22;" horiz-adv-x="372" 
d="M168 670h114l-56 -233h-84zM326 670h114l-56 -233h-84z" />
    <glyph glyph-name="numbersign" unicode="#" horiz-adv-x="692" 
d="M149 153h-113l47 114h112l56 136h-112l45 114h113l62 153h126l-63 -153h112l63 153h126l-63 -153h113l-46 -114h-112l-56 -136h112l-46 -114h-113l-61 -153h-126l62 153h-113l-61 -153h-126zM433 267l56 136h-112l-56 -136h112z" />
    <glyph glyph-name="dollar" unicode="$" horiz-adv-x="523" 
d="M218 -12q-65 13 -112.5 53t-70.5 101l116 76q42 -108 134 -108q36 0 60 20.5t24 52.5q0 23 -20.5 44t-69.5 49q-75 42 -109 87.5t-34 101.5q0 88 58.5 149t146.5 69l18 105h98l-19 -115q91 -27 148 -120l-112 -79q-47 85 -116 85q-31 0 -52 -19.5t-21 -48.5
q0 -25 20.5 -44.5t68.5 -46.5q145 -83 145 -192q0 -89 -58 -150t-147 -73l-16 -103h-98z" />
    <glyph glyph-name="percent" unicode="%" horiz-adv-x="890" 
d="M642 670h130l-405 -670h-130zM275 331q-73 0 -120 46t-47 114q0 80 57.5 136.5t136.5 56.5q66 0 117 -44.5t51 -114.5q0 -82 -58 -138t-137 -56zM282 437q30 0 52.5 22.5t22.5 55.5q0 27 -17.5 45t-45.5 18q-32 0 -53 -23.5t-21 -56.5q0 -26 17 -43.5t45 -17.5zM704 -14
q-72 0 -119.5 46.5t-47.5 115.5q0 76 58 133.5t138 57.5q73 0 119.5 -45.5t46.5 -112.5q0 -82 -58 -138.5t-137 -56.5zM712 92q31 0 52.5 22t21.5 57q0 27 -17 44.5t-44 17.5q-32 0 -54 -23t-22 -56q0 -26 18.5 -44t44.5 -18z" />
    <glyph glyph-name="ampersand" unicode="&#x26;" horiz-adv-x="701" 
d="M509 66q-106 -79 -218 -79q-104 0 -168 54.5t-64 136.5q0 72 43.5 130t121.5 90q-36 52 -36 104q0 77 61 129.5t144 52.5q86 0 142 -49.5t56 -120.5q0 -3 -0.5 -6t-0.5 -4v-2h-148v3q0 21 -14 35.5t-38 14.5t-40 -15.5t-16 -37.5q0 -26 24 -56l152 -172q38 69 53 156h218
l-18 -106h-99q-32 -87 -70 -141l100 -111l-106 -94zM314 115q58 0 112 42l-133 154q-40 -15 -63 -44.5t-23 -67.5q0 -39 28.5 -61.5t78.5 -22.5z" />
    <glyph glyph-name="quotesingle" unicode="'" horiz-adv-x="214" 
d="M168 670h114l-56 -233h-84z" />
    <glyph glyph-name="parenleft" unicode="(" horiz-adv-x="389" 
d="M237 -235q-67 75 -103 176.5t-36 213.5q0 172 84.5 334.5t225.5 255.5l76 -80q-115 -84 -183 -223t-68 -288q0 -189 106 -323z" />
    <glyph glyph-name="parenright" unicode=")" horiz-adv-x="389" 
d="M-9 -155q115 84 183 223t68 288q0 189 -106 323l102 66q67 -75 103 -176.5t36 -213.5q0 -172 -84.5 -334t-225.5 -256z" />
    <glyph glyph-name="asterisk" unicode="*" horiz-adv-x="398" 
d="M140 412l56 77l-91 29l28 87l91 -31l-1 96h92l-1 -95l90 30l29 -87l-91 -29l57 -77l-74 -54l-56 78l-55 -78z" />
    <glyph glyph-name="plus" unicode="+" horiz-adv-x="455" 
d="M233 270h-143v110h143v141h110v-141h142v-110h-142v-144h-110v144z" />
    <glyph glyph-name="comma" unicode="," horiz-adv-x="276" 
d="M12 -128l113 262l121 -47l-160 -245z" />
    <glyph glyph-name="hyphen" unicode="-" horiz-adv-x="315" 
d="M96 322h235l-22 -124h-235z" />
    <glyph glyph-name="period" unicode="." horiz-adv-x="282" 
d="M147 -9q-33 0 -54.5 21t-21.5 52q0 37 26.5 63.5t61.5 26.5q30 0 52.5 -21t22.5 -53q0 -38 -25.5 -63.5t-61.5 -25.5z" />
    <glyph glyph-name="slash" unicode="/" horiz-adv-x="416" 
d="M390 670h144l-413 -790h-142z" />
    <glyph glyph-name="zero" unicode="0" horiz-adv-x="628" 
d="M334 -14q-112 0 -176 75.5t-64 201.5q0 54 11.5 110.5t37 112.5t61 100t88.5 71t115 27q113 0 177 -75.5t64 -201.5q0 -185 -92.5 -303t-221.5 -118zM341 123q41 0 72.5 30.5t47.5 77.5t24 92t8 85q0 67 -24.5 103t-71.5 36q-58 0 -103.5 -79t-45.5 -207q0 -66 24 -102
t69 -36z" />
    <glyph glyph-name="one" unicode="1" horiz-adv-x="376" 
d="M238 470l-86 -53l-54 116l247 149h76l-120 -682h-146z" />
    <glyph glyph-name="two" unicode="2" horiz-adv-x="566" 
d="M75 125q14 78 68.5 131.5t155.5 94.5q90 39 124.5 68t34.5 68q0 30 -23.5 48t-62.5 18q-78 0 -118 -90l-124 47q79 174 249 174q103 0 165.5 -53t62.5 -134q0 -80 -54.5 -137t-178.5 -112q-140 -62 -151 -111h317l-24 -137h-464z" />
    <glyph glyph-name="three" unicode="3" horiz-adv-x="546" 
d="M277 -14q-89 0 -152 41t-86 114l124 66q29 -90 119 -90q45 0 76.5 27t31.5 68q0 38 -32.5 63t-82.5 25h-89l14 77l174 168h-212l22 125h416l-14 -75l-193 -191q67 -23 105.5 -72.5t38.5 -112.5q0 -100 -76.5 -166.5t-183.5 -66.5z" />
    <glyph glyph-name="four" unicode="4" horiz-adv-x="563" 
d="M342 100h-305l15 83l446 499h84l-81 -457h76l-22 -125h-76l-17 -100h-137zM364 225l31 171l-153 -171h122z" />
    <glyph glyph-name="five" unicode="5" horiz-adv-x="534" 
d="M270 -14q-89 0 -152 41.5t-86 113.5l124 66q29 -92 118 -92q48 0 81 31.5t33 79.5q0 42 -30 68t-81 26q-39 0 -76 -26l-65 41l103 335h348l-22 -125h-238l-31 -100q16 4 29 4q92 0 151.5 -60t59.5 -148q0 -110 -78 -182.5t-188 -72.5z" />
    <glyph glyph-name="six" unicode="6" horiz-adv-x="564" 
d="M317 -14q-110 0 -175.5 62.5t-65.5 161.5q0 138 116.5 275t301.5 212l61 -107q-171 -81 -243 -164q20 15 65 15q91 0 151 -61t60 -145q0 -105 -80 -177t-191 -72zM326 115q46 0 79.5 31.5t33.5 76.5q0 38 -28.5 63.5t-74.5 25.5q-48 0 -81.5 -30t-33.5 -75
q0 -39 31 -65.5t74 -26.5z" />
    <glyph glyph-name="seven" unicode="7" horiz-adv-x="544" 
d="M405 533h-257l25 137h454l-14 -75l-378 -595h-171z" />
    <glyph glyph-name="eight" unicode="8" horiz-adv-x="580" 
d="M324 -14q-113 0 -181.5 55t-68.5 137q0 62 35.5 112t96.5 77q-55 49 -55 117q0 84 69.5 142t166.5 58t159 -53t62 -129q0 -53 -28 -95t-77 -66q75 -55 75 -141q0 -92 -73.5 -153t-180.5 -61zM326 110q45 0 76 27.5t31 69.5q0 36 -28 58.5t-76 22.5t-77 -26t-29 -68
q0 -38 30.5 -61t72.5 -23zM374 412q36 0 61 22t25 57q0 30 -22.5 49.5t-57.5 19.5t-59.5 -23.5t-24.5 -58.5q0 -28 22 -47t56 -19z" />
    <glyph glyph-name="nine" unicode="9" horiz-adv-x="565" 
d="M128 84q152 69 247 158q-33 -13 -64 -13q-91 0 -151 62t-60 147q0 104 80 175t192 71q109 0 174.5 -62t65.5 -161q0 -137 -118 -273.5t-305 -214.5zM354 358q46 0 79.5 30.5t33.5 74.5q0 40 -29 66t-76 26q-48 0 -81.5 -31t-33.5 -76q0 -39 32 -64.5t75 -25.5z" />
    <glyph glyph-name="colon" unicode=":" horiz-adv-x="282" 
d="M147 -9q-33 0 -54.5 21t-21.5 52q0 37 26.5 63.5t61.5 26.5q30 0 52.5 -21t22.5 -53q0 -38 -25.5 -63.5t-61.5 -25.5zM200 306q-33 0 -54 21.5t-21 52.5q0 34 25.5 61.5t63.5 27.5q33 0 54 -21.5t21 -52.5q0 -36 -26 -62.5t-63 -26.5z" />
    <glyph glyph-name="semicolon" unicode=";" horiz-adv-x="275" 
d="M12 -128l113 262l121 -47l-160 -245zM200 306q-33 0 -54 21.5t-21 52.5q0 34 25.5 61.5t63.5 27.5q33 0 54 -21.5t21 -52.5q0 -36 -26 -62.5t-63 -26.5z" />
    <glyph glyph-name="less" unicode="&#x3c;" horiz-adv-x="456" 
d="M90 279v92l344 166l46 -95l-246 -115l247 -112l-45 -97z" />
    <glyph glyph-name="equal" unicode="=" horiz-adv-x="455" 
d="M90 284h395v-108h-395v108zM90 474h395v-108h-395v108z" />
    <glyph glyph-name="greater" unicode="&#x3e;" horiz-adv-x="456" 
d="M95 215l247 112l-246 115l46 95l344 -166v-92l-346 -161z" />
    <glyph glyph-name="question" unicode="?" horiz-adv-x="464" 
d="M225 -9q-33 0 -54.5 21t-21.5 52q0 37 26.5 63.5t61.5 26.5q30 0 52.5 -21t22.5 -53q0 -38 -25.5 -63.5t-61.5 -25.5zM299 182q-125 33 -125 118q0 42 28.5 74.5t96.5 71.5q39 22 56 38.5t17 33.5q0 22 -19.5 35t-53.5 13q-59 0 -115 -51l-62 91q91 78 200 78
q89 0 143.5 -42.5t54.5 -108.5q0 -49 -26.5 -83.5t-89.5 -68.5q-50 -27 -64.5 -40t-14.5 -29q0 -21 40 -36z" />
    <glyph glyph-name="at" unicode="@" horiz-adv-x="989" 
d="M368 -187q-124 40 -199.5 144t-75.5 235t67 241t178 172t240 62q180 0 296 -106t116 -259q0 -125 -65 -195t-158 -70q-111 0 -141 67q-59 -67 -140 -67q-71 0 -117 50t-46 120q0 87 60 149.5t140 62.5q70 0 117 -53l9 49h110l-34 -189q-16 -88 49 -88q41 0 68 37t27 116
q0 116 -83 195.5t-215 79.5q-148 0 -253.5 -107.5t-105.5 -261.5q0 -99 56.5 -179t149.5 -107zM522 138q38 0 66 29.5t28 68.5q0 34 -22 58t-57 24q-37 0 -66 -30t-29 -71q0 -35 22 -57t58 -22z" />
    <glyph glyph-name="A" unicode="A" horiz-adv-x="641" 
d="M404 682h93l144 -682h-147l-22 113h-231l-59 -113h-162zM450 239l-36 197l-105 -197h141z" />
    <glyph glyph-name="B" unicode="B" horiz-adv-x="568" 
d="M193 670h195q94 0 147 -54t53 -129q0 -50 -26.5 -90t-72.5 -64q73 -48 73 -132q0 -86 -72 -143.5t-173 -57.5h-242zM318 120q45 0 71.5 22.5t26.5 63.5q0 32 -22 53t-62 21h-62l-28 -160h76zM352 400q40 0 64 21t24 59q0 30 -20 50t-54 20h-49l-26 -150h61z" />
    <glyph glyph-name="C" unicode="C" horiz-adv-x="668" 
d="M419 -14q-145 0 -236 89t-91 223q0 163 112.5 274.5t266.5 111.5q88 0 159 -37t114 -103l-118 -90q-58 88 -161 88q-89 0 -153.5 -66.5t-64.5 -163.5q0 -79 51.5 -131.5t136.5 -52.5q81 0 148 62l86 -105q-114 -99 -250 -99z" />
    <glyph glyph-name="D" unicode="D" horiz-adv-x="718" 
d="M193 670h265q132 0 213 -88t81 -212q0 -155 -111.5 -262.5t-265.5 -107.5h-35h-265zM383 137q86 0 150 65t64 159q0 73 -45 122.5t-118 49.5h-120l-69 -396h138z" />
    <glyph glyph-name="E" unicode="E" horiz-adv-x="513" 
d="M193 670h383l-25 -137h-237l-21 -123h173l-24 -137h-173l-24 -136h242l-24 -137h-388z" />
    <glyph glyph-name="F" unicode="F" horiz-adv-x="483" 
d="M193 670h378l-25 -137h-232l-26 -152h168l-24 -137h-168l-43 -244h-146z" />
    <glyph glyph-name="G" unicode="G" horiz-adv-x="723" 
d="M415 -13q-145 0 -234.5 87t-89.5 221q0 164 114 276.5t267 112.5q89 0 159.5 -37.5t114.5 -104.5l-119 -90q-62 90 -162 90q-89 0 -153.5 -68t-64.5 -166q0 -79 52.5 -129t139.5 -50q63 0 118 34l18 100h-128l21 120h274l-51 -290q-119 -106 -276 -106z" />
    <glyph glyph-name="H" unicode="H" horiz-adv-x="703" 
d="M193 670h146l-47 -262h261l47 262h146l-118 -670h-146l47 271h-261l-47 -271h-146z" />
    <glyph glyph-name="I" unicode="I" horiz-adv-x="296" 
d="M193 670h146l-118 -670h-146z" />
    <glyph glyph-name="J" unicode="J" horiz-adv-x="488" 
d="M209 -14q-74 0 -124.5 33t-68.5 91l121 79q22 -66 79 -66q40 0 63.5 25.5t30.5 66.5l56 318h-172l25 137h318l-82 -467q-18 -101 -85 -159t-161 -58z" />
    <glyph glyph-name="K" unicode="K" horiz-adv-x="605" 
d="M193 670h146l-53 -301l261 301h176l-290 -329l172 -341h-170l-158 317l-56 -317h-146z" />
    <glyph glyph-name="L" unicode="L" horiz-adv-x="473" 
d="M193 670h146l-94 -533h232l-23 -137h-379z" />
    <glyph glyph-name="M" unicode="M" horiz-adv-x="849" 
d="M195 682h75l205 -363l344 363h75l-120 -682h-146l63 363l-213 -221h-58l-132 241l-67 -383h-146z" />
    <glyph glyph-name="N" unicode="N" horiz-adv-x="738" 
d="M287 399l-70 -399h-142l120 682h72l301 -411l71 399h142l-121 -682h-72z" />
    <glyph glyph-name="O" unicode="O" horiz-adv-x="762" 
d="M415 -14q-142 0 -232.5 90t-90.5 224q0 106 52.5 195t139.5 139t187 50q142 0 232.5 -90t90.5 -224q0 -106 -52.5 -195t-139.5 -139t-187 -50zM425 128q88 0 151 70t63 161q0 78 -49 130.5t-129 52.5q-88 0 -151 -70t-63 -161q0 -78 49 -130.5t129 -52.5z" />
    <glyph glyph-name="P" unicode="P" horiz-adv-x="571" 
d="M193 670h200q93 0 152 -60t59 -144q0 -105 -75.5 -177t-181.5 -72h-88l-38 -217h-146zM355 354q43 0 72.5 28t29.5 72q0 34 -23.5 56.5t-64.5 22.5h-55l-31 -179h72z" />
    <glyph glyph-name="Q" unicode="Q" horiz-adv-x="762" 
d="M610 -212q-54 0 -103.5 11t-95 35t-73.5 68.5t-29 104.5q-100 30 -158.5 109t-58.5 184q0 161 112.5 272.5t265.5 111.5q142 0 233 -90t91 -223q0 -147 -97 -253.5t-235 -122.5q6 -46 54.5 -62.5t136.5 -16.5q27 0 29 2l-5 -125q-35 -5 -67 -5zM424 128q88 0 151.5 70
t63.5 161q0 77 -49 130t-128 53q-87 0 -151 -67.5t-64 -163.5q0 -78 49 -130.5t128 -52.5z" />
    <glyph glyph-name="R" unicode="R" horiz-adv-x="594" 
d="M193 670h210q93 0 149 -57.5t56 -139.5q0 -71 -39 -128.5t-103 -81.5l108 -263h-162l-89 235h-61l-41 -235h-146zM358 364q44 0 73.5 27t29.5 70q0 33 -23 52.5t-67 19.5h-57l-29 -169h73z" />
    <glyph glyph-name="S" unicode="S" horiz-adv-x="523" 
d="M278 -18q-86 0 -149.5 42.5t-93.5 117.5l116 76q42 -108 134 -108q36 0 60 20.5t24 52.5q0 23 -20.5 44t-69.5 49q-75 42 -109 87.5t-34 101.5q0 94 66.5 156.5t160.5 62.5q143 0 223 -131l-112 -79q-47 85 -116 85q-31 0 -52 -19.5t-21 -48.5q0 -25 20.5 -44.5
t68.5 -46.5q145 -83 145 -192q0 -98 -70 -162t-171 -64z" />
    <glyph glyph-name="T" unicode="T" horiz-adv-x="576" 
d="M303 533h-195l25 137h536l-25 -137h-195l-93 -533h-146z" />
    <glyph glyph-name="U" unicode="U" horiz-adv-x="685" 
d="M360 -14q-116 0 -188.5 84t-54.5 200l71 400h146l-71 -398q-11 -55 17.5 -99.5t92.5 -44.5q52 0 91.5 40.5t51.5 103.5l71 398h146l-71 -400q-24 -130 -107.5 -207t-194.5 -77z" />
    <glyph glyph-name="V" unicode="V" horiz-adv-x="606" 
d="M123 670h147l75 -399l219 399h155l-381 -682h-77z" />
    <glyph glyph-name="W" unicode="W" horiz-adv-x="976" 
d="M128 670h152l57 -383l225 383h83l88 -403l197 403h154l-354 -682h-77l-91 430l-244 -430h-77z" />
    <glyph glyph-name="X" unicode="X" horiz-adv-x="604" 
d="M263 345l-115 325h161l74 -222l157 222h170l-253 -341l122 -329h-161l-81 227l-163 -227h-169z" />
    <glyph glyph-name="Y" unicode="Y" horiz-adv-x="549" 
d="M237 240l-129 430h147l75 -271l174 271h163l-284 -428l-42 -242h-146z" />
    <glyph glyph-name="Z" unicode="Z" horiz-adv-x="641" 
d="M50 76l406 457h-307l25 137h545l-14 -77l-406 -456h321l-24 -137h-559z" />
    <glyph glyph-name="bracketleft" unicode="[" horiz-adv-x="359" 
d="M210 710h244l-22 -121h-114l-119 -678h114l-22 -121h-244z" />
    <glyph glyph-name="backslash" unicode="\" horiz-adv-x="416" 
d="M118 670h144l132 -790h-143z" />
    <glyph glyph-name="bracketright" unicode="]" horiz-adv-x="359" 
d="M14 -89h114l119 678h-114l22 121h244l-163 -920h-243z" />
    <glyph glyph-name="asciicircum" unicode="^" horiz-adv-x="453" 
d="M90 400l151 271h91l151 -271l-91 -46l-105 197l-106 -197z" />
    <glyph glyph-name="underscore" unicode="_" horiz-adv-x="290" 
d="M-33 -79h329l-22 -124h-329z" />
    <glyph glyph-name="grave" unicode="`" horiz-adv-x="214" 
d="M133 675l102 53l65 -180l-80 -40z" />
    <glyph glyph-name="a" unicode="a" horiz-adv-x="509" 
d="M201 -14q-71 0 -114.5 38.5t-43.5 97.5q0 69 55.5 116.5t134.5 47.5q76 0 133 -39q4 11 4 27q0 36 -25.5 59.5t-66.5 23.5q-48 0 -94 -44l-62 99q87 62 171 62q96 0 154 -53t58 -137q0 -21 -4 -41l-42 -243h-134l7 40q-63 -54 -131 -54zM249 87q35 0 64 19.5t37 48.5
q-49 40 -98 40q-33 0 -52.5 -16.5t-19.5 -43.5q0 -23 21 -35.5t48 -12.5z" />
    <glyph glyph-name="b" unicode="b" 
d="M343 -14q-99 0 -150 72l-9 -58h-129l125 710h134l-51 -285q63 49 131 49q86 0 142.5 -62.5t56.5 -152.5q0 -113 -75 -193t-175 -80zM329 108q51 0 89.5 41.5t38.5 95.5q0 47 -30 77t-78 30q-51 0 -88 -38.5t-37 -96.5q0 -46 29 -77.5t76 -31.5z" />
    <glyph glyph-name="c" unicode="c" horiz-adv-x="506" 
d="M300 -14q-103 0 -168.5 63.5t-65.5 157.5q0 110 81 188.5t190 78.5q66 0 121.5 -30.5t86.5 -82.5l-108 -80q-38 66 -108 66q-52 0 -88.5 -37t-36.5 -94q0 -46 29.5 -74.5t79.5 -28.5q58 0 107 49l78 -97q-87 -79 -198 -79z" />
    <glyph glyph-name="d" unicode="d" 
d="M264 -14q-87 0 -142.5 62t-55.5 153q0 113 74 193t175 80q95 0 146 -65l53 301h134l-125 -710h-128l7 45q-56 -59 -138 -59zM306 108q52 0 90.5 39.5t38.5 94.5q0 46 -29 78t-76 32q-51 0 -88.5 -40.5t-37.5 -97.5q0 -46 28.5 -76t73.5 -30z" />
    <glyph glyph-name="e" unicode="e" horiz-adv-x="529" 
d="M300 -14q-106 0 -170.5 61t-64.5 155q0 116 76.5 194t185.5 78q96 0 156.5 -57t60.5 -144q0 -40 -11 -82h-331q0 -38 33 -64t88 -26q62 0 117 44l57 -84q-87 -75 -197 -75zM412 284q-5 86 -93 86q-71 0 -107 -86h200z" />
    <glyph glyph-name="f" unicode="f" horiz-adv-x="364" 
d="M152 352h-70l19 108h70l14 82q14 78 63 123t121 45q91 0 147 -64l-83 -86q-23 33 -58 33q-48 0 -58 -64l-12 -69h130l-19 -108h-130l-62 -352h-134z" />
    <glyph glyph-name="g" unicode="g" horiz-adv-x="529" 
d="M269 -148q42 0 67.5 18t25.5 47q0 59 -115 59q-92 0 -92 -59q0 -34 35.5 -49.5t78.5 -15.5zM265 -250q-110 0 -176.5 45.5t-66.5 115.5q0 86 81 129q-41 27 -41 68q0 67 75 94q-34 38 -34 91q0 80 62 130.5t153 50.5q63 0 95 -14h167l-16 -91h-56q14 -24 14 -56
q0 -79 -62 -129.5t-150 -50.5q-51 0 -95 18q-33 -5 -33 -35q0 -15 15.5 -25.5t45.5 -11.5l59 -1q85 -2 139 -41.5t54 -105.5q0 -81 -65 -131t-165 -50zM310 235q35 0 57.5 21t22.5 55q0 28 -20.5 44.5t-55.5 16.5q-34 0 -56.5 -20.5t-22.5 -55.5q0 -28 22.5 -44.5
t52.5 -16.5z" />
    <glyph glyph-name="h" unicode="h" horiz-adv-x="538" 
d="M180 710h134l-53 -293q49 58 119 57q73 -2 116.5 -48.5t43.5 -116.5q0 -8 -2 -24l-50 -285h-134l44 252q0 4 0.5 8.5t1 7t0.5 6.5q0 38 -20 58t-56 20q-35 0 -59 -25.5t-32 -68.5l-44 -258h-134z" />
    <glyph glyph-name="i" unicode="i" horiz-adv-x="247" 
d="M138 460h134l-81 -460h-134zM225 531q-32 0 -52.5 21t-20.5 51q0 35 25.5 60t59.5 25q30 0 51.5 -20t21.5 -51q0 -35 -25.5 -60.5t-59.5 -25.5z" />
    <glyph glyph-name="j" unicode="j" horiz-adv-x="247" 
d="M-1 -250q-62 0 -105 37l67 108q18 -20 34 -20q37 0 48 49l95 536h134l-98 -551q-13 -74 -60 -116.5t-115 -42.5zM225 531q-32 0 -52.5 21t-20.5 51q0 35 25.5 60t59.5 25q30 0 51.5 -20t21.5 -51q0 -35 -25.5 -60.5t-59.5 -25.5z" />
    <glyph glyph-name="k" unicode="k" horiz-adv-x="496" 
d="M180 710h134l-81 -460l186 210h160l-209 -228l126 -232h-155l-114 220l-38 -220h-134z" />
    <glyph glyph-name="l" unicode="l" horiz-adv-x="244" 
d="M180 710h134l-125 -710h-134z" />
    <glyph glyph-name="m" unicode="m" horiz-adv-x="837" 
d="M136 460h129l-10 -55q60 69 128 69q83 0 131 -78q78 78 160 78q73 0 119 -48t46 -119q0 -8 -2 -22l-50 -285h-134l44 252q1 5 1 22q0 37 -20 57.5t-56 20.5q-32 0 -57.5 -29.5t-33.5 -73.5l-43 -249h-134l44 252q1 9 1 13q0 40 -19 63.5t-55 23.5q-35 0 -60 -28.5
t-33 -74.5l-43 -249h-134z" />
    <glyph glyph-name="n" unicode="n" horiz-adv-x="538" 
d="M136 460h129l-10 -55q24 30 59.5 49.5t70.5 19.5q72 0 113.5 -46.5t41.5 -119.5q0 -13 -2 -23l-50 -285h-134l44 252q2 14 2 21q0 37 -19 58t-54 21t-59.5 -25t-32.5 -68l-46 -259h-134z" />
    <glyph glyph-name="o" unicode="o" horiz-adv-x="554" 
d="M296 -14q-100 0 -165 64t-65 158q0 109 80 187.5t187 78.5q92 0 162.5 -63t70.5 -159q0 -110 -81.5 -188t-188.5 -78zM307 113q51 0 86 39.5t35 92.5q0 45 -28 73.5t-76 28.5q-50 0 -85 -38t-35 -94q0 -46 28 -74t75 -28z" />
    <glyph glyph-name="p" unicode="p" horiz-adv-x="576" 
d="M327 108q51 0 88.5 42t37.5 96q0 46 -29.5 76t-76.5 30q-51 0 -88 -38.5t-37 -96.5q0 -46 29 -77.5t76 -31.5zM136 460h129l-9 -50q20 26 57.5 45t78.5 19q88 0 142.5 -60.5t54.5 -151.5q0 -114 -74 -195t-174 -81q-92 0 -144 66l-53 -302h-134z" />
    <glyph glyph-name="q" unicode="q" 
d="M312 108q52 0 90.5 39.5t38.5 94.5q0 46 -29 78t-76 32q-52 0 -90.5 -40.5t-38.5 -96.5q0 -45 30 -76t75 -31zM396 41q-13 -16 -48 -35.5t-77 -19.5q-88 0 -143.5 62t-55.5 153q0 113 74.5 193t174.5 80q97 0 145 -68l10 54h128l-126 -710h-134z" />
    <glyph glyph-name="r" unicode="r" horiz-adv-x="346" 
d="M136 460h129l-10 -54q51 68 120 68q18 0 51 -11l-42 -139q-26 13 -57 13q-37 0 -62 -23t-33 -67l-43 -247h-134z" />
    <glyph glyph-name="s" unicode="s" horiz-adv-x="461" 
d="M255 -14q-73 0 -133.5 27t-95.5 75l89 85q64 -80 147 -80q54 0 54 35q0 14 -19 25.5t-65 25.5q-135 41 -135 135q0 71 54 115.5t136 44.5q62 0 117 -24t92 -66l-83 -86q-66 69 -133 69q-44 0 -44 -32q0 -14 17.5 -24.5t65.5 -26.5q136 -46 136 -139q0 -73 -56 -116
t-144 -43z" />
    <glyph glyph-name="t" unicode="t" horiz-adv-x="402" 
d="M272 -14q-77 0 -119 38.5t-42 105.5q0 12 1 19l2 11l34 192h-71l19 108h71l23 130h134l-23 -130h127l-19 -108h-127l-32 -181q-1 -2 -1 -6q-1 -3 -1 -10q0 -52 55 -52q29 0 60 19l37 -93q-56 -43 -128 -43z" />
    <glyph glyph-name="u" unicode="u" horiz-adv-x="538" 
d="M234 -14q-70 0 -112.5 48t-42.5 119q0 10 2 26l2 14l48 267h134l-45 -249v-5q-1 -4 -1.5 -9.5t-0.5 -9.5q0 -37 19.5 -58t54.5 -21t60 25.5t33 68.5l45 258h134l-81 -460h-129l9 53q-65 -67 -129 -67z" />
    <glyph glyph-name="v" unicode="v" horiz-adv-x="471" 
d="M76 460h136l51 -246l139 246h145l-283 -472h-76z" />
    <glyph glyph-name="w" unicode="w" horiz-adv-x="724" 
d="M81 460h142l36 -230l139 240h77l49 -265l132 255h139l-258 -472h-77l-57 291l-158 -291h-76z" />
    <glyph glyph-name="x" unicode="x" horiz-adv-x="478" 
d="M189 244l-97 216h147l56 -133l102 133h156l-191 -234l100 -226h-147l-59 141l-106 -141h-155z" />
    <glyph glyph-name="y" unicode="y" horiz-adv-x="479" 
d="M161 -9l-85 469h131l51 -310l160 310h137l-390 -710h-137z" />
    <glyph glyph-name="z" unicode="z" horiz-adv-x="480" 
d="M42 71l263 267h-198l22 122h401l-13 -71l-258 -267h207l-21 -122h-415z" />
    <glyph glyph-name="braceleft" unicode="{" horiz-adv-x="369" 
d="M265 -210q-69 0 -113 41.5t-44 108.5q0 23 2 33l25 143v4q0 2 0.5 4t0.5 4q0 28 -16 44.5t-47 16.5h-5l21 122h5h11q30 0 50.5 17.5t25.5 46.5l28 167q29 168 191 168h28h36l-22 -121h-35h-6q-23 0 -40.5 -16t-22.5 -41l-27 -159q-20 -109 -92 -121l-1 -4q51 -20 51 -92
q0 -20 -5 -40l-23 -140q-1 -1 -1 -5v-8q0 -48 46 -52h37l-22 -121h-36z" />
    <glyph glyph-name="bar" unicode="|" horiz-adv-x="337" 
d="M160 710h137v-960h-137v960z" />
    <glyph glyph-name="braceright" unicode="}" horiz-adv-x="369" 
d="M14 -89h35h6q23 0 40.5 16t22.5 41l27 159q20 109 92 121l1 4q-51 20 -51 92q0 20 5 40l23 140v5q0 1 0.5 4t0.5 4q0 48 -46 52h-37l22 121h36q69 0 113 -41.5t44 -108.5q0 -23 -2 -33l-25 -143q-1 -2 -1 -5v-7q0 -28 16 -44.5t47 -16.5h5l-21 -122h-5h-11
q-30 0 -50.5 -17.5t-25.5 -46.5l-28 -167q-29 -168 -191 -168h-28h-36z" />
    <glyph glyph-name="asciitilde" unicode="~" horiz-adv-x="455" 
d="M353 249q-39 0 -78 21q-49 24 -64 24q-31 0 -54 -44l-67 49q11 47 45.5 74t83.5 27q29 0 81 -24l15 -7q31 -14 46 -14q17 0 28.5 9.5t26.5 34.5l69 -50q-14 -48 -49 -74t-83 -26z" />
    <glyph glyph-name="nbspace" unicode="&#xa0;" horiz-adv-x="220" 
 />
    <glyph glyph-name="exclamdown" unicode="&#xa1;" horiz-adv-x="282" 
d="M132 248h104l-63 -457h-141zM203 307q-30 0 -52.5 21t-22.5 53q0 38 25.5 63.5t61.5 25.5q33 0 54.5 -21t21.5 -52q0 -37 -26.5 -63.5t-61.5 -26.5z" />
    <glyph glyph-name="cent" unicode="&#xa2;" horiz-adv-x="506" 
d="M218 -1q-70 22 -111 78.5t-41 129.5q0 101 69 176.5t167 87.5l18 107h98l-18 -112q96 -23 145 -105l-108 -80q-38 66 -108 66q-52 0 -88.5 -37t-36.5 -94q0 -46 29.5 -74.5t79.5 -28.5q58 0 107 49l78 -97q-82 -72 -184 -78l-18 -105h-98z" />
    <glyph glyph-name="sterling" unicode="&#xa3;" horiz-adv-x="493" 
d="M42 72q151 101 157 214h-91l16 90h64q0 19 -9 37q-18 52 -18 87q0 81 58.5 132.5t148.5 51.5q116 0 184 -84l-88 -89q-43 48 -88 48q-32 0 -52 -19t-20 -48q0 -15 15.5 -54.5t19.5 -61.5h135l-16 -90h-113q0 -38 -27 -84t-62 -71h230l-23 -131h-433z" />
    <glyph glyph-name="currency" unicode="&#xa4;" horiz-adv-x="540" 
d="M80 167l83 82q-23 41 -23 92q0 48 23 89l-83 82l75 75l84 -83q44 21 89 21t89 -21l84 83l74 -75l-81 -81q21 -44 21 -90q0 -50 -22 -91l82 -83l-74 -74l-85 83q-40 -21 -88 -21q-44 0 -88 21l-85 -84zM327 264q33 0 53.5 21.5t20.5 54.5t-20.5 54.5t-53.5 21.5
q-32 0 -52.5 -21.5t-20.5 -54.5t20.5 -54.5t52.5 -21.5z" />
    <glyph glyph-name="yen" unicode="&#xa5;" horiz-adv-x="549" 
d="M206 63h-103l15 90h103l7 37h-103l16 90h83l-116 390h147l75 -271l174 271h163l-259 -390h84l-16 -90h-102l-7 -37h102l-15 -90h-102l-11 -63h-146z" />
    <glyph glyph-name="brokenbar" unicode="&#xa6;" horiz-adv-x="337" 
d="M160 125h137v-375h-137v375zM160 710h137v-375h-137v375z" />
    <glyph glyph-name="section" unicode="&#xa7;" horiz-adv-x="525" 
d="M237 -144q-56 0 -100 27.5t-66 73.5l101 67q22 -54 62 -54q19 0 32 14.5t13 34.5q-2 42 -85 93q-91 54 -91 143q0 64 38 113t99 71q-33 42 -33 84q0 66 50.5 113.5t122.5 47.5q55 0 99 -28t66 -72l-100 -68q-25 53 -65 53q-19 0 -31 -14t-12 -35q0 -20 20.5 -41.5
t69.5 -54.5q86 -59 86 -138q0 -64 -38.5 -113.5t-98.5 -70.5q33 -44 33 -87q0 -66 -50.5 -112.5t-121.5 -46.5zM305 204q33 0 54.5 20.5t21.5 52.5q0 26 -19.5 42t-51.5 16t-53.5 -19.5t-21.5 -51.5q0 -27 21 -43.5t49 -16.5z" />
    <glyph glyph-name="dieresis" unicode="&#xa8;" horiz-adv-x="382" 
d="M188 531q-32 0 -52.5 21t-20.5 51q0 35 25.5 60t59.5 25q28 0 50.5 -19.5t22.5 -50.5q0 -36 -25.5 -61.5t-59.5 -25.5zM395 531q-32 0 -52.5 21t-20.5 51q0 35 25.5 60t59.5 25q28 0 50.5 -19.5t22.5 -50.5q0 -36 -25.5 -61.5t-59.5 -25.5z" />
    <glyph glyph-name="copyright" unicode="&#xa9;" horiz-adv-x="817" 
d="M469 -26q-151 0 -255 106.5t-104 254.5q0 149 104 255t255 106t254.5 -106t103.5 -255q0 -148 -103.5 -254.5t-254.5 -106.5zM469 64q103 0 181.5 80t78.5 191t-78.5 191t-181.5 80q-110 0 -185.5 -79.5t-75.5 -191.5q0 -113 75.5 -192t185.5 -79zM476 166
q-74 0 -125 49.5t-51 122.5t50.5 122.5t125.5 49.5q88 0 143 -69l-66 -65q-33 42 -76 42q-35 0 -57 -22.5t-22 -57.5q0 -36 22 -58t58 -22q44 0 78 43l67 -65q-56 -70 -147 -70z" />
    <glyph glyph-name="ordfeminine" unicode="&#xaa;" horiz-adv-x="379" 
d="M218 331q-57 0 -89.5 26.5t-32.5 71.5q0 51 42 85.5t102 34.5q59 0 95 -27q1 35 -16.5 54t-48.5 19q-34 0 -63 -26l-48 74q59 41 125 41q73 0 116 -37.5t43 -98.5q0 -2 -0.5 -6t-0.5 -5v-5l-34 -192h-106l5 26q-44 -35 -89 -35zM256 408q55 0 67 47q-34 25 -68 25
q-23 0 -37.5 -11t-14.5 -29q0 -32 53 -32z" />
    <glyph glyph-name="guillemotleft" unicode="&#xab;" horiz-adv-x="509" 
d="M74 250l176 205l83 -63l-131 -151l70 -139l-95 -57zM276 250l176 205l83 -63l-131 -151l70 -139l-95 -57z" />
    <glyph glyph-name="logicalnot" unicode="&#xac;" horiz-adv-x="455" 
d="M375 270h-285v110h395v-221h-110v111z" />
    <glyph glyph-name="uni00AD" unicode="&#xad;" horiz-adv-x="315" 
d="M96 322h235l-22 -124h-235z" />
    <glyph glyph-name="registered" unicode="&#xae;" horiz-adv-x="817" 
d="M469 -26q-151 0 -255 106.5t-104 254.5q0 149 104 255t255 106t254.5 -106t103.5 -255q0 -148 -103.5 -254.5t-254.5 -106.5zM469 64q103 0 181.5 80t78.5 191t-78.5 191t-181.5 80q-110 0 -185.5 -79.5t-75.5 -191.5q0 -113 75.5 -192t185.5 -79zM351 505h127
q58 0 94 -31t36 -79q0 -63 -58 -94l71 -130h-101l-58 114h-21v-114h-90v334zM471 358q21 0 34 10t13 27t-13 27t-34 10h-30v-74h30z" />
    <glyph glyph-name="overscore" unicode="&#xaf;" horiz-adv-x="261" 
d="M125 654h241l-17 -97h-241z" />
    <glyph glyph-name="degree" unicode="&#xb0;" horiz-adv-x="458" 
d="M308 331q-76 0 -127 50.5t-51 126.5q0 75 51 125t127 50q78 0 129 -50t51 -125t-51 -126t-129 -51zM310 437q29 0 48 19.5t19 50.5q0 30 -19 50t-48 20q-30 0 -49.5 -20t-19.5 -50q0 -31 19.5 -50.5t49.5 -19.5z" />
    <glyph glyph-name="plusminus" unicode="&#xb1;" horiz-adv-x="455" 
d="M90 212h143v106h-143v110h143v141h110v-141h142v-110h-142v-106h142v-110h-395v110z" />
    <glyph glyph-name="uni00B2" unicode="&#xb2;" horiz-adv-x="391" 
d="M115 473l139 102q54 36 72.5 55t18.5 39q0 36 -42 36q-40 0 -52 -50l-106 37q23 57 68 88.5t103 31.5q68 0 110.5 -35.5t42.5 -90.5q0 -40 -28.5 -71.5t-90.5 -70.5l-48 -32h140l-17 -98h-320z" />
    <glyph glyph-name="uni00B3" unicode="&#xb3;" horiz-adv-x="378" 
d="M275 401q-66 0 -110.5 26.5t-55.5 74.5l90 51q17 -49 70 -49q22 0 36.5 10.5t14.5 27.5q0 33 -54 38h-51l11 60l83 70h-127l16 90h270l-11 -61l-106 -95q41 -14 65 -43.5t24 -65.5q0 -59 -47.5 -96.5t-117.5 -37.5z" />
    <glyph glyph-name="acute" unicode="&#xb4;" horiz-adv-x="214" 
d="M106 548l129 180l92 -62l-147 -167z" />
    <glyph glyph-name="uni00B5" unicode="&#xb5;" horiz-adv-x="543" 
d="M136 460h134l-45 -252q-2 -14 -2 -23q0 -36 18.5 -56.5t53.5 -20.5q36 -1 61 24t33 70l46 258h134l-81 -460h-129l7 40q-51 -54 -110 -54q-41 0 -66 22l-46 -258h-134z" />
    <glyph glyph-name="paragraph" unicode="&#xb6;" horiz-adv-x="444" 
d="M236 -250q-65 0 -107 36l52 104q22 -19 45 -19t36 15.5t13 41.5v379q-78 0 -129 52t-51 130t51 129.5t129 51.5h224v-121h-90v-620q0 -80 -48 -129.5t-125 -49.5z" />
    <glyph glyph-name="middot" unicode="&#xb7;" horiz-adv-x="220" 
d="M146 178q-32 0 -53 21.5t-21 52.5q0 35 27 61.5t61 26.5q30 0 53 -20.5t23 -53.5q0 -37 -27 -62.5t-63 -25.5z" />
    <glyph glyph-name="cedilla" unicode="&#xb8;" horiz-adv-x="258" 
d="M85 -265q-37 0 -72 13t-44 22l40 80q5 -6 24 -15.5t40 -9.5q18 0 29 8.5t11 22.5q0 13 -11 22t-31 9h-45l63 149h96l-37 -88q74 -31 74 -95q0 -51 -40 -84.5t-97 -33.5z" />
    <glyph glyph-name="uni00B9" unicode="&#xb9;" horiz-adv-x="324" 
d="M267 654l-94 -49l-36 89l204 116h61l-70 -396h-109z" />
    <glyph glyph-name="ordmasculine" unicode="&#xba;" horiz-adv-x="400" 
d="M274 331q-74 0 -121.5 46.5t-47.5 113.5q0 79 58.5 135.5t136.5 56.5q67 0 118.5 -45.5t51.5 -115.5q0 -80 -59 -135.5t-137 -55.5zM283 436q29 0 51 23.5t22 55.5q0 27 -17 45t-46 18q-32 0 -53.5 -23t-21.5 -58q0 -27 17.5 -44t47.5 -17z" />
    <glyph glyph-name="guillemotright" unicode="&#xbb;" horiz-adv-x="509" 
d="M63 108l131 151l-70 139l95 57l103 -205l-176 -205zM265 108l131 151l-70 139l95 57l103 -205l-176 -205z" />
    <glyph glyph-name="onequarter" unicode="&#xbc;" horiz-adv-x="819" 
d="M592 670h129l-404 -670h-131zM243 519l-94 -49l-36 89l204 116h61l-70 -396h-109zM651 56h-199l13 72l267 267h71l-45 -254h50l-15 -85h-50l-9 -56h-92zM666 141l17 93l-93 -93h76z" />
    <glyph glyph-name="onehalf" unicode="&#xbd;" horiz-adv-x="857" 
d="M592 670h129l-404 -670h-131zM243 519l-94 -49l-36 89l204 116h61l-70 -396h-109zM507 59l139 102q54 36 72.5 55t18.5 39q0 36 -42 36q-40 0 -52 -50l-106 37q23 57 68 88.5t103 31.5q68 0 110.5 -35.5t42.5 -90.5q0 -40 -28.5 -71.5t-90.5 -70.5l-48 -32h140l-17 -98
h-320z" />
    <glyph glyph-name="threequarters" unicode="&#xbe;" horiz-adv-x="873" 
d="M646 670h129l-404 -670h-131zM251 271q-66 0 -110.5 26.5t-55.5 74.5l90 51q17 -49 70 -49q22 0 36.5 10.5t14.5 27.5q0 33 -54 38h-51l11 60l83 70h-127l16 90h270l-11 -61l-106 -95q41 -14 65 -43.5t24 -65.5q0 -59 -47.5 -96.5t-117.5 -37.5zM705 56h-199l13 72
l267 267h71l-45 -254h50l-15 -85h-50l-9 -56h-92zM720 141l17 93l-93 -93h76z" />
    <glyph glyph-name="questiondown" unicode="&#xbf;" horiz-adv-x="464" 
d="M222 -224q-89 0 -143.5 42.5t-54.5 108.5q0 49 26.5 83.5t89.5 68.5q51 29 65 41t14 28q0 21 -40 36l66 94q125 -33 125 -118q0 -43 -28.5 -75t-96.5 -71q-39 -22 -56 -38.5t-17 -33.5q0 -22 19.5 -35t53.5 -13q59 0 115 51l62 -91q-91 -78 -200 -78zM307 306
q-30 0 -52.5 21t-22.5 53q0 38 25.5 63.5t61.5 25.5q33 0 54.5 -21t21.5 -52q0 -37 -26.5 -63.5t-61.5 -26.5z" />
    <glyph glyph-name="Agrave" unicode="&#xc0;" horiz-adv-x="641" 
d="M404 682h93l144 -682h-147l-22 113h-231l-59 -113h-162zM450 239l-36 197l-105 -197h141zM342 885l102 53l65 -180l-80 -40z" />
    <glyph glyph-name="Aacute" unicode="&#xc1;" horiz-adv-x="641" 
d="M404 682h93l144 -682h-147l-22 113h-231l-59 -113h-162zM450 239l-36 197l-105 -197h141zM411 758l129 180l92 -62l-147 -167z" />
    <glyph glyph-name="Acircumflex" unicode="&#xc2;" horiz-adv-x="641" 
d="M404 682h93l144 -682h-147l-22 113h-231l-59 -113h-162zM450 239l-36 197l-105 -197h141zM309 815l174 89l142 -89l-54 -83l-100 61l-135 -67z" />
    <glyph glyph-name="Atilde" unicode="&#xc3;" horiz-adv-x="641" 
d="M404 682h93l144 -682h-147l-22 113h-231l-59 -113h-162zM450 239l-36 197l-105 -197h141zM303 803q17 39 48 62.5t64 23.5q23 0 55 -17t47 -17q23 0 51 34l58 -55q-17 -39 -47 -62t-63 -23q-21 0 -54 17t-55 17t-45 -34z" />
    <glyph glyph-name="Adieresis" unicode="&#xc4;" horiz-adv-x="641" 
d="M404 682h93l144 -682h-147l-22 113h-231l-59 -113h-162zM450 239l-36 197l-105 -197h141zM358 741q-32 0 -52.5 21t-20.5 51q0 35 25.5 60t59.5 25q28 0 50.5 -19.5t22.5 -50.5q0 -36 -25.5 -61.5t-59.5 -25.5zM565 741q-32 0 -52.5 21t-20.5 51q0 35 25.5 60t59.5 25
q28 0 50.5 -19.5t22.5 -50.5q0 -36 -25.5 -61.5t-59.5 -25.5z" />
    <glyph glyph-name="Aring" unicode="&#xc5;" horiz-adv-x="641" 
d="M404 682h93l144 -682h-147l-22 113h-231l-59 -113h-162zM450 239l-36 197l-105 -197h141zM458 702q-47 0 -83 30t-36 78q0 51 39.5 86.5t93.5 35.5q47 0 83 -30t36 -78q0 -51 -39.5 -86.5t-93.5 -35.5zM463 780q20 0 33 11t13 28q0 15 -11.5 25t-30.5 10q-20 0 -33 -11
t-13 -28q0 -15 11.5 -25t30.5 -10z" />
    <glyph glyph-name="AE" unicode="&#xc6;" horiz-adv-x="818" 
d="M411 670h470l-25 -137h-282v-123h198l-24 -137h-174v-136h218l-24 -137h-326l-1 119h-228l-72 -119h-156zM441 245l1 249l-152 -249h151z" />
    <glyph glyph-name="Ccedilla" unicode="&#xc7;" horiz-adv-x="668" 
d="M355 -265q-37 0 -72 13t-44 22l40 80q5 -6 24 -15.5t40 -9.5q18 0 29 8.5t11 22.5q0 13 -11 22t-31 9h-45l45 107q-113 22 -181 105.5t-68 198.5q0 163 112.5 274.5t266.5 111.5q88 0 159 -37t114 -103l-118 -90q-58 88 -161 88q-89 0 -153.5 -66.5t-64.5 -163.5
q0 -79 51.5 -131.5t136.5 -52.5q81 0 148 62l86 -105q-109 -92 -235 -98l-16 -39q74 -31 74 -95q0 -51 -40 -84.5t-97 -33.5z" />
    <glyph glyph-name="Egrave" unicode="&#xc8;" horiz-adv-x="513" 
d="M193 670h383l-25 -137h-237l-21 -123h173l-24 -137h-173l-24 -136h242l-24 -137h-388zM280 885l102 53l65 -180l-80 -40z" />
    <glyph glyph-name="Eacute" unicode="&#xc9;" horiz-adv-x="513" 
d="M193 670h383l-25 -137h-237l-21 -123h173l-24 -137h-173l-24 -136h242l-24 -137h-388zM337 758l129 180l92 -62l-147 -167z" />
    <glyph glyph-name="Ecircumflex" unicode="&#xca;" horiz-adv-x="513" 
d="M193 670h383l-25 -137h-237l-21 -123h173l-24 -137h-173l-24 -136h242l-24 -137h-388zM234 815l174 89l142 -89l-54 -83l-100 61l-135 -67z" />
    <glyph glyph-name="Edieresis" unicode="&#xcb;" horiz-adv-x="513" 
d="M193 670h383l-25 -137h-237l-21 -123h173l-24 -137h-173l-24 -136h242l-24 -137h-388zM288 741q-32 0 -52.5 21t-20.5 51q0 35 25.5 60t59.5 25q28 0 50.5 -19.5t22.5 -50.5q0 -36 -25.5 -61.5t-59.5 -25.5zM495 741q-32 0 -52.5 21t-20.5 51q0 35 25.5 60t59.5 25
q28 0 50.5 -19.5t22.5 -50.5q0 -36 -25.5 -61.5t-59.5 -25.5z" />
    <glyph glyph-name="Igrave" unicode="&#xcc;" horiz-adv-x="295" 
d="M193 670h146l-118 -670h-146zM158 885l102 53l65 -180l-80 -40z" />
    <glyph glyph-name="Iacute" unicode="&#xcd;" horiz-adv-x="295" 
d="M193 670h146l-118 -670h-146zM227 758l129 180l92 -62l-147 -167z" />
    <glyph glyph-name="Icircumflex" unicode="&#xce;" horiz-adv-x="296" 
d="M193 670h146l-118 -670h-146zM130 815l174 89l142 -89l-54 -83l-100 61l-135 -67z" />
    <glyph glyph-name="Idieresis" unicode="&#xcf;" horiz-adv-x="292" 
d="M193 670h146l-118 -670h-146zM183 742q-32 0 -52.5 21t-20.5 51q0 35 25.5 60t59.5 25q28 0 50.5 -19.5t22.5 -50.5q0 -36 -25.5 -61.5t-59.5 -25.5zM388 742q-32 0 -52.5 21t-20.5 51q0 35 25.5 60t59.5 25q28 0 50.5 -19.5t22.5 -50.5q0 -36 -25.5 -61.5t-59.5 -25.5z
" />
    <glyph glyph-name="Eth" unicode="&#xd0;" horiz-adv-x="733" 
d="M140 285h-100l19 108h100l49 277h265q132 0 213 -88t81 -212q0 -155 -111.5 -262.5t-265.5 -107.5h-300zM398 137q86 0 150 65t64 159q0 73 -45 122.5t-118 49.5h-120l-25 -140h126l-19 -108h-125l-26 -148h138z" />
    <glyph glyph-name="Ntilde" unicode="&#xd1;" horiz-adv-x="738" 
d="M287 399l-70 -399h-142l120 682h72l301 -411l71 399h142l-121 -682h-72zM336 803q17 39 48 62.5t64 23.5q23 0 55 -17t47 -17q23 0 51 34l58 -55q-17 -39 -47 -62t-63 -23q-21 0 -54 17t-55 17t-45 -34z" />
    <glyph glyph-name="Ograve" unicode="&#xd2;" horiz-adv-x="762" 
d="M415 -14q-142 0 -232.5 90t-90.5 224q0 106 52.5 195t139.5 139t187 50q142 0 232.5 -90t90.5 -224q0 -106 -52.5 -195t-139.5 -139t-187 -50zM425 128q88 0 151 70t63 161q0 78 -49 130.5t-129 52.5q-88 0 -151 -70t-63 -161q0 -78 49 -130.5t129 -52.5zM374 885l102 53
l65 -180l-80 -40z" />
    <glyph glyph-name="Oacute" unicode="&#xd3;" horiz-adv-x="762" 
d="M415 -14q-142 0 -232.5 90t-90.5 224q0 106 52.5 195t139.5 139t187 50q142 0 232.5 -90t90.5 -224q0 -106 -52.5 -195t-139.5 -139t-187 -50zM425 128q88 0 151 70t63 161q0 78 -49 130.5t-129 52.5q-88 0 -151 -70t-63 -161q0 -78 49 -130.5t129 -52.5zM445 758
l129 180l92 -62l-147 -167z" />
    <glyph glyph-name="Ocircumflex" unicode="&#xd4;" horiz-adv-x="762" 
d="M415 -14q-142 0 -232.5 90t-90.5 224q0 106 52.5 195t139.5 139t187 50q142 0 232.5 -90t90.5 -224q0 -106 -52.5 -195t-139.5 -139t-187 -50zM425 128q88 0 151 70t63 161q0 78 -49 130.5t-129 52.5q-88 0 -151 -70t-63 -161q0 -78 49 -130.5t129 -52.5zM334 815l174 89
l142 -89l-54 -83l-100 61l-135 -67z" />
    <glyph glyph-name="Otilde" unicode="&#xd5;" horiz-adv-x="762" 
d="M415 -14q-142 0 -232.5 90t-90.5 224q0 106 52.5 195t139.5 139t187 50q142 0 232.5 -90t90.5 -224q0 -106 -52.5 -195t-139.5 -139t-187 -50zM425 128q88 0 151 70t63 161q0 78 -49 130.5t-129 52.5q-88 0 -151 -70t-63 -161q0 -78 49 -130.5t129 -52.5zM338 803
q17 39 48 62.5t64 23.5q23 0 55 -17t47 -17q23 0 51 34l58 -55q-17 -39 -47 -62t-63 -23q-21 0 -54 17t-55 17t-45 -34z" />
    <glyph glyph-name="Odieresis" unicode="&#xd6;" horiz-adv-x="762" 
d="M415 -14q-142 0 -232.5 90t-90.5 224q0 106 52.5 195t139.5 139t187 50q142 0 232.5 -90t90.5 -224q0 -106 -52.5 -195t-139.5 -139t-187 -50zM425 128q88 0 151 70t63 161q0 78 -49 130.5t-129 52.5q-88 0 -151 -70t-63 -161q0 -78 49 -130.5t129 -52.5zM393 741
q-32 0 -52.5 21t-20.5 51q0 35 25.5 60t59.5 25q28 0 50.5 -19.5t22.5 -50.5q0 -36 -25.5 -61.5t-59.5 -25.5zM600 741q-32 0 -52.5 21t-20.5 51q0 35 25.5 60t59.5 25q28 0 50.5 -19.5t22.5 -50.5q0 -36 -25.5 -61.5t-59.5 -25.5z" />
    <glyph glyph-name="multiply" unicode="&#xd7;" horiz-adv-x="456" 
d="M100 211l114 113l-114 114l75 74l113 -113l114 113l74 -74l-113 -114l113 -113l-74 -75l-114 113l-113 -113z" />
    <glyph glyph-name="Oslash" unicode="&#xd8;" horiz-adv-x="762" 
d="M94 12l72 82q-74 88 -74 206q0 156 110 270t269 114q95 0 172 -45l73 83l80 -63l-75 -85q73 -87 73 -204q0 -106 -52.5 -195t-139.5 -139t-187 -50q-95 0 -171 43l-70 -80zM542 524q-38 18 -80 18q-87 0 -151 -67.5t-64 -163.5q0 -53 25 -96zM425 129q89 0 151.5 69
t62.5 161q0 50 -23 94l-270 -308q33 -16 79 -16z" />
    <glyph glyph-name="Ugrave" unicode="&#xd9;" horiz-adv-x="685" 
d="M360 -14q-116 0 -188.5 84t-54.5 200l71 400h146l-71 -398q-11 -55 17.5 -99.5t92.5 -44.5q52 0 91.5 40.5t51.5 103.5l71 398h146l-71 -400q-24 -130 -107.5 -207t-194.5 -77zM362 885l102 53l65 -180l-80 -40z" />
    <glyph glyph-name="Uacute" unicode="&#xda;" horiz-adv-x="685" 
d="M360 -14q-116 0 -188.5 84t-54.5 200l71 400h146l-71 -398q-11 -55 17.5 -99.5t92.5 -44.5q52 0 91.5 40.5t51.5 103.5l71 398h146l-71 -400q-24 -130 -107.5 -207t-194.5 -77zM421 758l129 180l92 -62l-147 -167z" />
    <glyph glyph-name="Ucircumflex" unicode="&#xdb;" horiz-adv-x="685" 
d="M360 -14q-116 0 -188.5 84t-54.5 200l71 400h146l-71 -398q-11 -55 17.5 -99.5t92.5 -44.5q52 0 91.5 40.5t51.5 103.5l71 398h146l-71 -400q-24 -130 -107.5 -207t-194.5 -77zM324 815l174 89l142 -89l-54 -83l-100 61l-135 -67z" />
    <glyph glyph-name="Udieresis" unicode="&#xdc;" horiz-adv-x="685" 
d="M360 -14q-116 0 -188.5 84t-54.5 200l71 400h146l-71 -398q-11 -55 17.5 -99.5t92.5 -44.5q52 0 91.5 40.5t51.5 103.5l71 398h146l-71 -400q-24 -130 -107.5 -207t-194.5 -77zM375 741q-32 0 -52.5 21t-20.5 51q0 35 25.5 60t59.5 25q28 0 50.5 -19.5t22.5 -50.5
q0 -36 -25.5 -61.5t-59.5 -25.5zM582 741q-32 0 -52.5 21t-20.5 51q0 35 25.5 60t59.5 25q28 0 50.5 -19.5t22.5 -50.5q0 -36 -25.5 -61.5t-59.5 -25.5z" />
    <glyph glyph-name="Yacute" unicode="&#xdd;" horiz-adv-x="549" 
d="M237 240l-129 430h147l75 -271l174 271h163l-284 -428l-42 -242h-146zM341 758l129 180l92 -62l-147 -167z" />
    <glyph glyph-name="Thorn" unicode="&#xde;" horiz-adv-x="661" 
d="M193 670h146l-21 -117h158q82 0 144 -58.5t62 -138.5q0 -98 -73 -163.5t-179 -65.5h-187l-22 -127h-146zM439 264q43 0 69.5 21.5t26.5 59.5q0 29 -24.5 50t-58.5 21h-158l-27 -152h172z" />
    <glyph glyph-name="germandbls" unicode="&#xdf;" horiz-adv-x="574" 
d="M373 -14q-40 0 -71 9t-42.5 17t-11.5 10l55 103q6 -6 27.5 -11.5t43.5 -5.5q37 0 60 16t23 44q0 29 -39 71q-64 70 -64 126q0 98 116 169q-6 25 -29.5 39.5t-56.5 14.5q-44 0 -73.5 -32.5t-39.5 -88.5l-82 -467h-134l84 480q18 102 88 166t166 64q92 0 152.5 -50.5
t60.5 -125.5q0 -16 -3 -32q-65 -37 -90 -62.5t-25 -56.5t42 -83q32 -42 46.5 -71t14.5 -60q0 -79 -63.5 -131t-154.5 -52z" />
    <glyph glyph-name="agrave" unicode="&#xe0;" horiz-adv-x="509" 
d="M201 -14q-71 0 -114.5 38.5t-43.5 97.5q0 69 55.5 116.5t134.5 47.5q76 0 133 -39q4 11 4 27q0 36 -25.5 59.5t-66.5 23.5q-48 0 -94 -44l-62 99q87 62 171 62q96 0 154 -53t58 -137q0 -21 -4 -41l-42 -243h-134l7 40q-63 -54 -131 -54zM249 87q35 0 64 19.5t37 48.5
q-49 40 -98 40q-33 0 -52.5 -16.5t-19.5 -43.5q0 -23 21 -35.5t48 -12.5zM234 675l102 53l65 -180l-80 -40z" />
    <glyph glyph-name="aacute" unicode="&#xe1;" horiz-adv-x="509" 
d="M201 -14q-71 0 -114.5 38.5t-43.5 97.5q0 69 55.5 116.5t134.5 47.5q76 0 133 -39q4 11 4 27q0 36 -25.5 59.5t-66.5 23.5q-48 0 -94 -44l-62 99q87 62 171 62q96 0 154 -53t58 -137q0 -21 -4 -41l-42 -243h-134l7 40q-63 -54 -131 -54zM249 87q35 0 64 19.5t37 48.5
q-49 40 -98 40q-33 0 -52.5 -16.5t-19.5 -43.5q0 -23 21 -35.5t48 -12.5zM294 548l129 180l92 -62l-147 -167z" />
    <glyph glyph-name="acircumflex" unicode="&#xe2;" horiz-adv-x="509" 
d="M201 -14q-71 0 -114.5 38.5t-43.5 97.5q0 69 55.5 116.5t134.5 47.5q76 0 133 -39q4 11 4 27q0 36 -25.5 59.5t-66.5 23.5q-48 0 -94 -44l-62 99q87 62 171 62q96 0 154 -53t58 -137q0 -21 -4 -41l-42 -243h-134l7 40q-63 -54 -131 -54zM249 87q35 0 64 19.5t37 48.5
q-49 40 -98 40q-33 0 -52.5 -16.5t-19.5 -43.5q0 -23 21 -35.5t48 -12.5zM191 605l174 89l142 -89l-54 -83l-100 61l-135 -67z" />
    <glyph glyph-name="atilde" unicode="&#xe3;" horiz-adv-x="509" 
d="M201 -14q-71 0 -114.5 38.5t-43.5 97.5q0 69 55.5 116.5t134.5 47.5q76 0 133 -39q4 11 4 27q0 36 -25.5 59.5t-66.5 23.5q-48 0 -94 -44l-62 99q87 62 171 62q96 0 154 -53t58 -137q0 -21 -4 -41l-42 -243h-134l7 40q-63 -54 -131 -54zM249 87q35 0 64 19.5t37 48.5
q-49 40 -98 40q-33 0 -52.5 -16.5t-19.5 -43.5q0 -23 21 -35.5t48 -12.5zM196 593q17 39 48 62.5t64 23.5q23 0 55 -17t47 -17q23 0 51 34l58 -55q-17 -39 -47 -62t-63 -23q-21 0 -54 17t-55 17t-45 -34z" />
    <glyph glyph-name="adieresis" unicode="&#xe4;" horiz-adv-x="509" 
d="M201 -14q-71 0 -114.5 38.5t-43.5 97.5q0 69 55.5 116.5t134.5 47.5q76 0 133 -39q4 11 4 27q0 36 -25.5 59.5t-66.5 23.5q-48 0 -94 -44l-62 99q87 62 171 62q96 0 154 -53t58 -137q0 -21 -4 -41l-42 -243h-134l7 40q-63 -54 -131 -54zM249 87q35 0 64 19.5t37 48.5
q-49 40 -98 40q-33 0 -52.5 -16.5t-19.5 -43.5q0 -23 21 -35.5t48 -12.5zM250 531q-32 0 -52.5 21t-20.5 51q0 35 25.5 60t59.5 25q28 0 50.5 -19.5t22.5 -50.5q0 -36 -25.5 -61.5t-59.5 -25.5zM457 531q-32 0 -52.5 21t-20.5 51q0 35 25.5 60t59.5 25q28 0 50.5 -19.5
t22.5 -50.5q0 -36 -25.5 -61.5t-59.5 -25.5z" />
    <glyph glyph-name="aring" unicode="&#xe5;" horiz-adv-x="509" 
d="M201 -14q-71 0 -114.5 38.5t-43.5 97.5q0 69 55.5 116.5t134.5 47.5q76 0 133 -39q4 11 4 27q0 36 -25.5 59.5t-66.5 23.5q-48 0 -94 -44l-62 99q87 62 171 62q96 0 154 -53t58 -137q0 -21 -4 -41l-42 -243h-134l7 40q-63 -54 -131 -54zM249 87q35 0 64 19.5t37 48.5
q-49 40 -98 40q-33 0 -52.5 -16.5t-19.5 -43.5q0 -23 21 -35.5t48 -12.5zM351 492q-47 0 -83 30t-36 78q0 51 39.5 86.5t93.5 35.5q47 0 83 -30t36 -78q0 -51 -39.5 -86.5t-93.5 -35.5zM356 570q20 0 33 11t13 28q0 15 -11.5 25t-30.5 10q-20 0 -33 -11t-13 -28
q0 -15 11.5 -25t30.5 -10z" />
    <glyph glyph-name="ae" unicode="&#xe6;" horiz-adv-x="824" 
d="M226 -14q-80 0 -130 39.5t-50 100.5q0 69 55.5 114.5t134.5 45.5q88 0 134 -30l2 11v3q0 2 0.5 3t0.5 3q0 36 -25.5 59t-66.5 23q-50 0 -94 -41l-62 99q79 58 170 58q115 0 175 -65q20 24 66.5 44.5t87.5 20.5q93 0 154.5 -58t61.5 -144q0 -28 -14 -81h-329
q5 -43 36.5 -66.5t84.5 -23.5q65 0 116 44l58 -85q-86 -74 -197 -74q-118 0 -189 81q-64 -81 -180 -81zM252 87q36 0 63.5 19t37.5 51q-47 38 -98 38q-33 0 -52.5 -16t-19.5 -42q0 -25 21 -37.5t48 -12.5zM710 284q-3 41 -27 63.5t-66 22.5q-38 0 -67 -24t-41 -62h201z" />
    <glyph glyph-name="ccedilla" unicode="&#xe7;" horiz-adv-x="506" 
d="M242 -265q-37 0 -72 13t-44 22l40 80q5 -6 24 -15.5t40 -9.5q18 0 29 8.5t11 22.5q0 13 -11 22t-31 9h-45l46 109q-74 20 -118.5 77.5t-44.5 133.5q0 110 81 188.5t190 78.5q66 0 121.5 -30.5t86.5 -82.5l-108 -80q-38 66 -108 66q-52 0 -88.5 -37t-36.5 -94
q0 -46 29.5 -74.5t79.5 -28.5q58 0 107 49l78 -97q-73 -67 -177 -78l-16 -39q74 -31 74 -95q0 -51 -40 -84.5t-97 -33.5z" />
    <glyph glyph-name="egrave" unicode="&#xe8;" horiz-adv-x="529" 
d="M300 -14q-106 0 -170.5 61t-64.5 155q0 116 76.5 194t185.5 78q96 0 156.5 -57t60.5 -144q0 -40 -11 -82h-331q0 -38 33 -64t88 -26q62 0 117 44l57 -84q-87 -75 -197 -75zM412 284q-5 86 -93 86q-71 0 -107 -86h200zM232 675l102 53l65 -180l-80 -40z" />
    <glyph glyph-name="eacute" unicode="&#xe9;" horiz-adv-x="529" 
d="M300 -14q-106 0 -170.5 61t-64.5 155q0 116 76.5 194t185.5 78q96 0 156.5 -57t60.5 -144q0 -40 -11 -82h-331q0 -38 33 -64t88 -26q62 0 117 44l57 -84q-87 -75 -197 -75zM412 284q-5 86 -93 86q-71 0 -107 -86h200zM302 548l129 180l92 -62l-147 -167z" />
    <glyph glyph-name="ecircumflex" unicode="&#xea;" horiz-adv-x="529" 
d="M300 -14q-106 0 -170.5 61t-64.5 155q0 116 76.5 194t185.5 78q96 0 156.5 -57t60.5 -144q0 -40 -11 -82h-331q0 -38 33 -64t88 -26q62 0 117 44l57 -84q-87 -75 -197 -75zM412 284q-5 86 -93 86q-71 0 -107 -86h200zM200 605l174 89l142 -89l-54 -83l-100 61l-135 -67z
" />
    <glyph glyph-name="edieresis" unicode="&#xeb;" horiz-adv-x="529" 
d="M300 -14q-106 0 -170.5 61t-64.5 155q0 116 76.5 194t185.5 78q96 0 156.5 -57t60.5 -144q0 -40 -11 -82h-331q0 -38 33 -64t88 -26q62 0 117 44l57 -84q-87 -75 -197 -75zM412 284q-5 86 -93 86q-71 0 -107 -86h200zM258 531q-32 0 -52.5 21t-20.5 51q0 35 25.5 60
t59.5 25q28 0 50.5 -19.5t22.5 -50.5q0 -36 -25.5 -61.5t-59.5 -25.5zM465 531q-32 0 -52.5 21t-20.5 51q0 35 25.5 60t59.5 25q28 0 50.5 -19.5t22.5 -50.5q0 -36 -25.5 -61.5t-59.5 -25.5z" />
    <glyph glyph-name="igrave" unicode="&#xec;" horiz-adv-x="244" 
d="M136 460h134l-81 -460h-134zM99 675l102 53l65 -180l-80 -40z" />
    <glyph glyph-name="iacute" unicode="&#xed;" horiz-adv-x="245" 
d="M136 460h134l-81 -460h-134zM164 548l129 180l92 -62l-147 -167z" />
    <glyph glyph-name="icircumflex" unicode="&#xee;" horiz-adv-x="246" 
d="M137 460h134l-81 -460h-134zM71 605l174 89l142 -89l-54 -83l-100 61l-135 -67z" />
    <glyph glyph-name="idieresis" unicode="&#xef;" horiz-adv-x="248" 
d="M138 460h134l-81 -460h-134zM143 540q-27 0 -44.5 18.5t-17.5 45.5q0 29 21.5 53t53.5 24q28 0 45.5 -19.5t17.5 -46.5q0 -30 -23 -52.5t-53 -22.5zM303 540q-26 0 -43 18.5t-17 45.5q0 29 21 53t52 24q29 0 46.5 -18.5t17.5 -46.5q0 -31 -23 -53.5t-54 -22.5z" />
    <glyph glyph-name="eth" unicode="&#xf0;" horiz-adv-x="556" 
d="M295 -14q-100 0 -163.5 59t-63.5 148q0 103 71 172.5t168 69.5q88 0 137 -55q-12 66 -66 132l-137 -63l-25 81l96 44q-32 25 -60 41l73 95q66 -40 110 -81l114 52l24 -81l-80 -37q82 -110 82 -248q0 -143 -78.5 -236t-201.5 -93zM311 113q49 0 81.5 30t32.5 78
q0 39 -28.5 65t-76.5 26t-81 -30.5t-33 -79.5q0 -41 30.5 -65t74.5 -24z" />
    <glyph glyph-name="ntilde" unicode="&#xf1;" horiz-adv-x="538" 
d="M136 460h129l-10 -55q24 30 59.5 49.5t70.5 19.5q72 0 113.5 -46.5t41.5 -119.5q0 -13 -2 -23l-50 -285h-134l44 252q2 14 2 21q0 37 -19 58t-54 21t-59.5 -25t-32.5 -68l-46 -259h-134zM215 593q17 39 48 62.5t64 23.5q23 0 55 -17t47 -17q23 0 51 34l58 -55
q-17 -39 -47 -62t-63 -23q-21 0 -54 17t-55 17t-45 -34z" />
    <glyph glyph-name="ograve" unicode="&#xf2;" horiz-adv-x="554" 
d="M296 -14q-100 0 -165 64t-65 158q0 109 80 187.5t187 78.5q92 0 162.5 -63t70.5 -159q0 -110 -81.5 -188t-188.5 -78zM307 113q51 0 86 39.5t35 92.5q0 45 -28 73.5t-76 28.5q-50 0 -85 -38t-35 -94q0 -46 28 -74t75 -28zM234 675l102 53l65 -180l-80 -40z" />
    <glyph glyph-name="oacute" unicode="&#xf3;" horiz-adv-x="554" 
d="M296 -14q-100 0 -165 64t-65 158q0 109 80 187.5t187 78.5q92 0 162.5 -63t70.5 -159q0 -110 -81.5 -188t-188.5 -78zM307 113q51 0 86 39.5t35 92.5q0 45 -28 73.5t-76 28.5q-50 0 -85 -38t-35 -94q0 -46 28 -74t75 -28zM300 548l129 180l92 -62l-147 -167z" />
    <glyph glyph-name="ocircumflex" unicode="&#xf4;" horiz-adv-x="554" 
d="M296 -14q-100 0 -165 64t-65 158q0 109 80 187.5t187 78.5q92 0 162.5 -63t70.5 -159q0 -110 -81.5 -188t-188.5 -78zM307 113q51 0 86 39.5t35 92.5q0 45 -28 73.5t-76 28.5q-50 0 -85 -38t-35 -94q0 -46 28 -74t75 -28zM199 605l174 89l142 -89l-54 -83l-100 61
l-135 -67z" />
    <glyph glyph-name="otilde" unicode="&#xf5;" horiz-adv-x="554" 
d="M296 -14q-100 0 -165 64t-65 158q0 109 80 187.5t187 78.5q92 0 162.5 -63t70.5 -159q0 -110 -81.5 -188t-188.5 -78zM307 113q51 0 86 39.5t35 92.5q0 45 -28 73.5t-76 28.5q-50 0 -85 -38t-35 -94q0 -46 28 -74t75 -28zM200 593q17 39 48 62.5t64 23.5q23 0 55 -17
t47 -17q23 0 51 34l58 -55q-17 -39 -47 -62t-63 -23q-21 0 -54 17t-55 17t-45 -34z" />
    <glyph glyph-name="odieresis" unicode="&#xf6;" horiz-adv-x="554" 
d="M296 -14q-100 0 -165 64t-65 158q0 109 80 187.5t187 78.5q92 0 162.5 -63t70.5 -159q0 -110 -81.5 -188t-188.5 -78zM307 113q51 0 86 39.5t35 92.5q0 45 -28 73.5t-76 28.5q-50 0 -85 -38t-35 -94q0 -46 28 -74t75 -28zM250 531q-32 0 -52.5 21t-20.5 51q0 35 25.5 60
t59.5 25q28 0 50.5 -19.5t22.5 -50.5q0 -36 -25.5 -61.5t-59.5 -25.5zM457 531q-32 0 -52.5 21t-20.5 51q0 35 25.5 60t59.5 25q28 0 50.5 -19.5t22.5 -50.5q0 -36 -25.5 -61.5t-59.5 -25.5z" />
    <glyph glyph-name="divide" unicode="&#xf7;" horiz-adv-x="455" 
d="M288 66q-32 0 -53.5 21.5t-21.5 52.5t21.5 53t53.5 22q31 0 52.5 -22t21.5 -53t-21.5 -52.5t-52.5 -21.5zM90 380h395v-110h-395v110zM288 435q-32 0 -53.5 21.5t-21.5 52.5t21.5 53t53.5 22q31 0 52.5 -22t21.5 -53t-21.5 -52.5t-52.5 -21.5z" />
    <glyph glyph-name="oslash" unicode="&#xf8;" horiz-adv-x="554" 
d="M73 7l47 54q-54 60 -54 147q0 109 80 187.5t187 78.5q61 0 120 -32l50 57l58 -46l-50 -58q55 -62 55 -143q0 -110 -81.5 -188t-188.5 -78q-65 0 -118 29l-47 -53zM364 340q-15 7 -40 7q-50 0 -85 -38t-35 -94q0 -26 9 -47zM307 113q51 0 86 39.5t35 92.5q0 25 -9 45
l-151 -171q18 -6 39 -6z" />
    <glyph glyph-name="ugrave" unicode="&#xf9;" horiz-adv-x="538" 
d="M234 -14q-70 0 -112.5 48t-42.5 119q0 10 2 26l2 14l48 267h134l-45 -249v-5q-1 -4 -1.5 -9.5t-0.5 -9.5q0 -37 19.5 -58t54.5 -21t60 25.5t33 68.5l45 258h134l-81 -460h-129l9 53q-65 -67 -129 -67zM239 675l102 53l65 -180l-80 -40z" />
    <glyph glyph-name="uacute" unicode="&#xfa;" horiz-adv-x="538" 
d="M234 -14q-70 0 -112.5 48t-42.5 119q0 10 2 26l2 14l48 267h134l-45 -249v-5q-1 -4 -1.5 -9.5t-0.5 -9.5q0 -37 19.5 -58t54.5 -21t60 25.5t33 68.5l45 258h134l-81 -460h-129l9 53q-65 -67 -129 -67zM307 548l129 180l92 -62l-147 -167z" />
    <glyph glyph-name="ucircumflex" unicode="&#xfb;" horiz-adv-x="538" 
d="M234 -14q-70 0 -112.5 48t-42.5 119q0 10 2 26l2 14l48 267h134l-45 -249v-5q-1 -4 -1.5 -9.5t-0.5 -9.5q0 -37 19.5 -58t54.5 -21t60 25.5t33 68.5l45 258h134l-81 -460h-129l9 53q-65 -67 -129 -67zM208 605l174 89l142 -89l-54 -83l-100 61l-135 -67z" />
    <glyph glyph-name="udieresis" unicode="&#xfc;" horiz-adv-x="538" 
d="M234 -14q-70 0 -112.5 48t-42.5 119q0 10 2 26l2 14l48 267h134l-45 -249v-5q-1 -4 -1.5 -9.5t-0.5 -9.5q0 -37 19.5 -58t54.5 -21t60 25.5t33 68.5l45 258h134l-81 -460h-129l9 53q-65 -67 -129 -67zM257 531q-32 0 -52.5 21t-20.5 51q0 35 25.5 60t59.5 25
q28 0 50.5 -19.5t22.5 -50.5q0 -36 -25.5 -61.5t-59.5 -25.5zM464 531q-32 0 -52.5 21t-20.5 51q0 35 25.5 60t59.5 25q28 0 50.5 -19.5t22.5 -50.5q0 -36 -25.5 -61.5t-59.5 -25.5z" />
    <glyph glyph-name="yacute" unicode="&#xfd;" horiz-adv-x="479" 
d="M161 -9l-85 469h131l51 -310l160 310h137l-390 -710h-137zM275 548l129 180l92 -62l-147 -167z" />
    <glyph glyph-name="thorn" unicode="&#xfe;" horiz-adv-x="584" 
d="M180 710h134l-51 -285q57 49 132 49q89 0 147 -61.5t58 -154.5q0 -112 -75.5 -192t-175.5 -80q-45 0 -86 19.5t-65 50.5l-54 -306h-134zM335 113q51 0 88.5 38t37.5 94q0 45 -28.5 73.5t-76.5 28.5q-52 0 -89 -36t-37 -93q0 -44 30.5 -74.5t74.5 -30.5z" />
    <glyph glyph-name="ydieresis" unicode="&#xff;" horiz-adv-x="479" 
d="M161 -9l-85 469h131l51 -310l160 310h137l-390 -710h-137zM218 531q-32 0 -52.5 21t-20.5 51q0 35 25.5 60t59.5 25q28 0 50.5 -19.5t22.5 -50.5q0 -36 -25.5 -61.5t-59.5 -25.5zM425 531q-32 0 -52.5 21t-20.5 51q0 35 25.5 60t59.5 25q28 0 50.5 -19.5t22.5 -50.5
q0 -36 -25.5 -61.5t-59.5 -25.5z" />
    <glyph glyph-name="Amacron" unicode="&#x100;" horiz-adv-x="641" 
d="M404 682h93l144 -682h-147l-22 113h-231l-59 -113h-162zM450 239l-36 197l-105 -197h141zM365 864h241l-17 -97h-241z" />
    <glyph glyph-name="amacron" unicode="&#x101;" horiz-adv-x="509" 
d="M201 -14q-71 0 -114.5 38.5t-43.5 97.5q0 69 55.5 116.5t134.5 47.5q76 0 133 -39q4 11 4 27q0 36 -25.5 59.5t-66.5 23.5q-48 0 -94 -44l-62 99q87 62 171 62q96 0 154 -53t58 -137q0 -21 -4 -41l-42 -243h-134l7 40q-63 -54 -131 -54zM249 87q35 0 64 19.5t37 48.5
q-49 40 -98 40q-33 0 -52.5 -16.5t-19.5 -43.5q0 -23 21 -35.5t48 -12.5zM247 654h241l-17 -97h-241z" />
    <glyph glyph-name="Abreve" unicode="&#x102;" horiz-adv-x="641" 
d="M404 682h93l144 -682h-147l-22 113h-231l-59 -113h-162zM450 239l-36 197l-105 -197h141zM455 726q-63 0 -101 37.5t-38 100.5q0 11 1 18h98v-7q0 -24 13 -38t35 -14q24 0 40.5 16t18.5 43h98q-6 -71 -51 -113.5t-114 -42.5z" />
    <glyph glyph-name="abreve" unicode="&#x103;" horiz-adv-x="509" 
d="M201 -14q-71 0 -114.5 38.5t-43.5 97.5q0 69 55.5 116.5t134.5 47.5q76 0 133 -39q4 11 4 27q0 36 -25.5 59.5t-66.5 23.5q-48 0 -94 -44l-62 99q87 62 171 62q96 0 154 -53t58 -137q0 -21 -4 -41l-42 -243h-134l7 40q-63 -54 -131 -54zM249 87q35 0 64 19.5t37 48.5
q-49 40 -98 40q-33 0 -52.5 -16.5t-19.5 -43.5q0 -23 21 -35.5t48 -12.5zM348 516q-63 0 -101 37.5t-38 100.5q0 11 1 18h98v-7q0 -24 13 -38t35 -14q24 0 40.5 16t18.5 43h98q-6 -71 -51 -113.5t-114 -42.5z" />
    <glyph glyph-name="Aogonek" unicode="&#x104;" horiz-adv-x="641" 
d="M532 -265q-65 0 -103 30t-38 78q0 96 124 157h-21l-22 113h-231l-59 -113h-162l384 682h93l144 -682q-124 -64 -124 -121q0 -39 56 -39q13 0 28 4l-18 -104q-32 -5 -51 -5zM450 239l-36 197l-105 -197h141z" />
    <glyph glyph-name="aogonek" unicode="&#x105;" horiz-adv-x="509" 
d="M249 87q35 0 64 19.5t37 48.5q-49 40 -98 40q-33 0 -52.5 -16.5t-19.5 -43.5q0 -23 21 -35.5t48 -12.5zM350 -265q-65 0 -103 30t-38 78q0 92 134 157h-18l7 40q-63 -54 -131 -54q-71 0 -114.5 38.5t-43.5 97.5q0 69 55.5 116.5t134.5 47.5q76 0 133 -39q4 11 4 27
q0 36 -25.5 59.5t-66.5 23.5q-48 0 -94 -44l-62 99q87 62 171 62q96 0 154 -53t58 -137q0 -21 -4 -41l-42 -243q-124 -64 -124 -121q0 -39 56 -39q13 0 28 4l-18 -104q-32 -5 -51 -5z" />
    <glyph glyph-name="Cacute" unicode="&#x106;" horiz-adv-x="668" 
d="M419 -14q-145 0 -236 89t-91 223q0 163 112.5 274.5t266.5 111.5q88 0 159 -37t114 -103l-118 -90q-58 88 -161 88q-89 0 -153.5 -66.5t-64.5 -163.5q0 -79 51.5 -131.5t136.5 -52.5q81 0 148 62l86 -105q-114 -99 -250 -99zM436 758l129 180l92 -62l-147 -167z" />
    <glyph glyph-name="cacute" unicode="&#x107;" horiz-adv-x="506" 
d="M300 -14q-103 0 -168.5 63.5t-65.5 157.5q0 110 81 188.5t190 78.5q66 0 121.5 -30.5t86.5 -82.5l-108 -80q-38 66 -108 66q-52 0 -88.5 -37t-36.5 -94q0 -46 29.5 -74.5t79.5 -28.5q58 0 107 49l78 -97q-87 -79 -198 -79zM299 548l129 180l92 -62l-147 -167z" />
    <glyph glyph-name="Ccircumflex" unicode="&#x108;" horiz-adv-x="668" 
d="M419 -14q-145 0 -236 89t-91 223q0 163 112.5 274.5t266.5 111.5q88 0 159 -37t114 -103l-118 -90q-58 88 -161 88q-89 0 -153.5 -66.5t-64.5 -163.5q0 -79 51.5 -131.5t136.5 -52.5q81 0 148 62l86 -105q-114 -99 -250 -99zM337 815l174 89l142 -89l-54 -83l-100 61
l-135 -67z" />
    <glyph glyph-name="ccircumflex" unicode="&#x109;" horiz-adv-x="506" 
d="M300 -14q-103 0 -168.5 63.5t-65.5 157.5q0 110 81 188.5t190 78.5q66 0 121.5 -30.5t86.5 -82.5l-108 -80q-38 66 -108 66q-52 0 -88.5 -37t-36.5 -94q0 -46 29.5 -74.5t79.5 -28.5q58 0 107 49l78 -97q-87 -79 -198 -79zM202 605l174 89l142 -89l-54 -83l-100 61
l-135 -67z" />
    <glyph glyph-name="Cdotaccent" unicode="&#x10a;" horiz-adv-x="668" 
d="M419 -14q-145 0 -236 89t-91 223q0 163 112.5 274.5t266.5 111.5q88 0 159 -37t114 -103l-118 -90q-58 88 -161 88q-89 0 -153.5 -66.5t-64.5 -163.5q0 -79 51.5 -131.5t136.5 -52.5q81 0 148 62l86 -105q-114 -99 -250 -99zM495 741q-32 0 -52.5 21t-20.5 51
q0 35 25.5 60t59.5 25q28 0 50.5 -19.5t22.5 -50.5q0 -36 -25.5 -61.5t-59.5 -25.5z" />
    <glyph glyph-name="cdotaccent" unicode="&#x10b;" horiz-adv-x="506" 
d="M300 -14q-103 0 -168.5 63.5t-65.5 157.5q0 110 81 188.5t190 78.5q66 0 121.5 -30.5t86.5 -82.5l-108 -80q-38 66 -108 66q-52 0 -88.5 -37t-36.5 -94q0 -46 29.5 -74.5t79.5 -28.5q58 0 107 49l78 -97q-87 -79 -198 -79zM358 531q-32 0 -52.5 21t-20.5 51q0 35 25.5 60
t59.5 25q28 0 50.5 -19.5t22.5 -50.5q0 -36 -25.5 -61.5t-59.5 -25.5z" />
    <glyph glyph-name="Ccaron" unicode="&#x10c;" horiz-adv-x="668" 
d="M419 -14q-145 0 -236 89t-91 223q0 163 112.5 274.5t266.5 111.5q88 0 159 -37t114 -103l-118 -90q-58 88 -161 88q-89 0 -153.5 -66.5t-64.5 -163.5q0 -79 51.5 -131.5t136.5 -52.5q81 0 148 62l86 -105q-114 -99 -250 -99zM344 806l56 86l103 -63l129 66l28 -89
l-174 -90z" />
    <glyph glyph-name="ccaron" unicode="&#x10d;" horiz-adv-x="506" 
d="M300 -14q-103 0 -168.5 63.5t-65.5 157.5q0 110 81 188.5t190 78.5q66 0 121.5 -30.5t86.5 -82.5l-108 -80q-38 66 -108 66q-52 0 -88.5 -37t-36.5 -94q0 -46 29.5 -74.5t79.5 -28.5q58 0 107 49l78 -97q-87 -79 -198 -79zM206 596l56 86l103 -63l129 66l28 -89l-174 -90
z" />
    <glyph glyph-name="Dcaron" unicode="&#x10e;" horiz-adv-x="718" 
d="M193 670h265q132 0 213 -88t81 -212q0 -155 -111.5 -262.5t-265.5 -107.5h-35h-265zM383 137q86 0 150 65t64 159q0 73 -45 122.5t-118 49.5h-120l-69 -396h138zM339 806l56 86l103 -63l129 66l28 -89l-174 -90z" />
    <glyph glyph-name="dcaron" unicode="&#x10f;" horiz-adv-x="699" 
d="M264 -14q-87 0 -142.5 62t-55.5 153q0 113 74 193t175 80q95 0 146 -65l53 301h134l-125 -710h-128l7 45q-56 -59 -138 -59zM306 108q52 0 90.5 39.5t38.5 94.5q0 46 -29 78t-76 32q-51 0 -88.5 -40.5t-37.5 -97.5q0 -46 28.5 -76t73.5 -30zM654 521l71 206l105 -25
l-93 -199z" />
    <glyph glyph-name="Dcroat" unicode="&#x110;" horiz-adv-x="733" 
d="M140 285h-100l19 108h100l49 277h265q132 0 213 -88t81 -212q0 -155 -111.5 -262.5t-265.5 -107.5h-300zM398 137q86 0 150 65t64 159q0 73 -45 122.5t-118 49.5h-120l-25 -140h126l-19 -108h-125l-26 -148h138z" />
    <glyph glyph-name="dslash" unicode="&#x111;" horiz-adv-x="591" 
d="M264 -14q-87 0 -142.5 62t-55.5 153q0 113 74 193t175 80q95 0 146 -65l21 123h-162l19 106h162l13 72h134l-13 -72h68l-19 -106h-68l-93 -532h-128l7 45q-56 -59 -138 -59zM306 108q52 0 90.5 39.5t38.5 94.5q0 46 -29 78t-76 32q-51 0 -88.5 -40.5t-37.5 -97.5
q0 -46 28.5 -76t73.5 -30z" />
    <glyph glyph-name="Emacron" unicode="&#x112;" horiz-adv-x="513" 
d="M193 670h383l-25 -137h-237l-21 -123h173l-24 -137h-173l-24 -136h242l-24 -137h-388zM288 864h241l-17 -97h-241z" />
    <glyph glyph-name="emacron" unicode="&#x113;" horiz-adv-x="529" 
d="M300 -14q-106 0 -170.5 61t-64.5 155q0 116 76.5 194t185.5 78q96 0 156.5 -57t60.5 -144q0 -40 -11 -82h-331q0 -38 33 -64t88 -26q62 0 117 44l57 -84q-87 -75 -197 -75zM412 284q-5 86 -93 86q-71 0 -107 -86h200zM252 654h241l-17 -97h-241z" />
    <glyph glyph-name="Ebreve" unicode="&#x114;" horiz-adv-x="513" 
d="M193 670h383l-25 -137h-237l-21 -123h173l-24 -137h-173l-24 -136h242l-24 -137h-388zM389 726q-63 0 -101 37.5t-38 100.5q0 11 1 18h98v-7q0 -24 13 -38t35 -14q24 0 40.5 16t18.5 43h98q-6 -71 -51 -113.5t-114 -42.5z" />
    <glyph glyph-name="ebreve" unicode="&#x115;" horiz-adv-x="529" 
d="M300 -14q-106 0 -170.5 61t-64.5 155q0 116 76.5 194t185.5 78q96 0 156.5 -57t60.5 -144q0 -40 -11 -82h-331q0 -38 33 -64t88 -26q62 0 117 44l57 -84q-87 -75 -197 -75zM412 284q-5 86 -93 86q-71 0 -107 -86h200zM355 516q-63 0 -101 37.5t-38 100.5q0 11 1 18h98v-7
q0 -24 13 -38t35 -14q24 0 40.5 16t18.5 43h98q-6 -71 -51 -113.5t-114 -42.5z" />
    <glyph glyph-name="Edotaccent" unicode="&#x116;" horiz-adv-x="513" 
d="M193 670h383l-25 -137h-237l-21 -123h173l-24 -137h-173l-24 -136h242l-24 -137h-388zM395 741q-32 0 -52.5 21t-20.5 51q0 35 25.5 60t59.5 25q28 0 50.5 -19.5t22.5 -50.5q0 -36 -25.5 -61.5t-59.5 -25.5z" />
    <glyph glyph-name="edotaccent" unicode="&#x117;" horiz-adv-x="529" 
d="M300 -14q-106 0 -170.5 61t-64.5 155q0 116 76.5 194t185.5 78q96 0 156.5 -57t60.5 -144q0 -40 -11 -82h-331q0 -38 33 -64t88 -26q62 0 117 44l57 -84q-87 -75 -197 -75zM412 284q-5 86 -93 86q-71 0 -107 -86h200zM360 531q-32 0 -52.5 21t-20.5 51q0 35 25.5 60
t59.5 25q28 0 50.5 -19.5t22.5 -50.5q0 -36 -25.5 -61.5t-59.5 -25.5z" />
    <glyph glyph-name="Eogonek" unicode="&#x118;" horiz-adv-x="513" 
d="M354 -265q-65 0 -103 30t-38 78q0 96 124 157h-262l118 670h383l-25 -137h-237l-21 -123h173l-24 -137h-173l-24 -136h242l-24 -137q-124 -64 -124 -121q0 -39 56 -39q13 0 28 4l-18 -104q-32 -5 -51 -5z" />
    <glyph glyph-name="eogonek" unicode="&#x119;" horiz-adv-x="529" 
d="M360 -266q-76 0 -119.5 31.5t-43.5 85.5q0 70 77 136q-95 8 -152 68t-57 147q0 116 76.5 194t185.5 78q96 0 156.5 -57t60.5 -144q0 -40 -11 -82h-331q0 -36 31 -63t90 -27q67 3 117 44l58 -85q-17 -16 -50 -35l-6 -3q-61 -36 -89 -66.5t-28 -62.5q0 -26 18.5 -39.5
t49.5 -13.5q19 0 34 4l-18 -107q-24 -3 -49 -3zM412 284q-5 86 -93 86q-71 0 -107 -86h200z" />
    <glyph glyph-name="Ecaron" unicode="&#x11a;" horiz-adv-x="513" 
d="M193 670h383l-25 -137h-237l-21 -123h173l-24 -137h-173l-24 -136h242l-24 -137h-388zM243 806l56 86l103 -63l129 66l28 -89l-174 -90z" />
    <glyph glyph-name="ecaron" unicode="&#x11b;" horiz-adv-x="529" 
d="M300 -14q-106 0 -170.5 61t-64.5 155q0 116 76.5 194t185.5 78q96 0 156.5 -57t60.5 -144q0 -40 -11 -82h-331q0 -38 33 -64t88 -26q62 0 117 44l57 -84q-87 -75 -197 -75zM412 284q-5 86 -93 86q-71 0 -107 -86h200zM208 596l56 86l103 -63l129 66l28 -89l-174 -90z" />
    <glyph glyph-name="Gcircumflex" unicode="&#x11c;" horiz-adv-x="723" 
d="M415 -13q-145 0 -234.5 87t-89.5 221q0 164 114 276.5t267 112.5q89 0 159.5 -37.5t114.5 -104.5l-119 -90q-62 90 -162 90q-89 0 -153.5 -68t-64.5 -166q0 -79 52.5 -129t139.5 -50q63 0 118 34l18 100h-128l21 120h274l-51 -290q-119 -106 -276 -106zM340 815l174 89
l142 -89l-54 -83l-100 61l-135 -67z" />
    <glyph glyph-name="gcircumflex" unicode="&#x11d;" horiz-adv-x="529" 
d="M269 -148q42 0 67.5 18t25.5 47q0 59 -115 59q-92 0 -92 -59q0 -34 35.5 -49.5t78.5 -15.5zM265 -250q-110 0 -176.5 45.5t-66.5 115.5q0 86 81 129q-41 27 -41 68q0 67 75 94q-34 38 -34 91q0 80 62 130.5t153 50.5q63 0 95 -14h167l-16 -91h-56q14 -24 14 -56
q0 -79 -62 -129.5t-150 -50.5q-51 0 -95 18q-33 -5 -33 -35q0 -15 15.5 -25.5t45.5 -11.5l59 -1q85 -2 139 -41.5t54 -105.5q0 -81 -65 -131t-165 -50zM310 235q35 0 57.5 21t22.5 55q0 28 -20.5 44.5t-55.5 16.5q-34 0 -56.5 -20.5t-22.5 -55.5q0 -28 22.5 -44.5
t52.5 -16.5zM207 605l174 89l142 -89l-54 -83l-100 61l-135 -67z" />
    <glyph glyph-name="Gbreve" unicode="&#x11e;" horiz-adv-x="723" 
d="M415 -13q-145 0 -234.5 87t-89.5 221q0 164 114 276.5t267 112.5q89 0 159.5 -37.5t114.5 -104.5l-119 -90q-62 90 -162 90q-89 0 -153.5 -68t-64.5 -166q0 -79 52.5 -129t139.5 -50q63 0 118 34l18 100h-128l21 120h274l-51 -290q-119 -106 -276 -106zM486 726
q-63 0 -101 37.5t-38 100.5q0 11 1 18h98v-7q0 -24 13 -38t35 -14q24 0 40.5 16t18.5 43h98q-6 -71 -51 -113.5t-114 -42.5z" />
    <glyph glyph-name="gbreve" unicode="&#x11f;" horiz-adv-x="529" 
d="M269 -148q42 0 67.5 18t25.5 47q0 59 -115 59q-92 0 -92 -59q0 -34 35.5 -49.5t78.5 -15.5zM265 -250q-110 0 -176.5 45.5t-66.5 115.5q0 86 81 129q-41 27 -41 68q0 67 75 94q-34 38 -34 91q0 80 62 130.5t153 50.5q63 0 95 -14h167l-16 -91h-56q14 -24 14 -56
q0 -79 -62 -129.5t-150 -50.5q-51 0 -95 18q-33 -5 -33 -35q0 -15 15.5 -25.5t45.5 -11.5l59 -1q85 -2 139 -41.5t54 -105.5q0 -81 -65 -131t-165 -50zM310 235q35 0 57.5 21t22.5 55q0 28 -20.5 44.5t-55.5 16.5q-34 0 -56.5 -20.5t-22.5 -55.5q0 -28 22.5 -44.5
t52.5 -16.5zM363 516q-63 0 -101 37.5t-38 100.5q0 11 1 18h98v-7q0 -24 13 -38t35 -14q24 0 40.5 16t18.5 43h98q-6 -71 -51 -113.5t-114 -42.5z" />
    <glyph glyph-name="Gdotaccent" unicode="&#x120;" horiz-adv-x="723" 
d="M415 -13q-145 0 -234.5 87t-89.5 221q0 164 114 276.5t267 112.5q89 0 159.5 -37.5t114.5 -104.5l-119 -90q-62 90 -162 90q-89 0 -153.5 -68t-64.5 -166q0 -79 52.5 -129t139.5 -50q63 0 118 34l18 100h-128l21 120h274l-51 -290q-119 -106 -276 -106zM491 741
q-32 0 -52.5 21t-20.5 51q0 35 25.5 60t59.5 25q28 0 50.5 -19.5t22.5 -50.5q0 -36 -25.5 -61.5t-59.5 -25.5z" />
    <glyph glyph-name="gdotaccent" unicode="&#x121;" horiz-adv-x="529" 
d="M269 -148q42 0 67.5 18t25.5 47q0 59 -115 59q-92 0 -92 -59q0 -34 35.5 -49.5t78.5 -15.5zM265 -250q-110 0 -176.5 45.5t-66.5 115.5q0 86 81 129q-41 27 -41 68q0 67 75 94q-34 38 -34 91q0 80 62 130.5t153 50.5q63 0 95 -14h167l-16 -91h-56q14 -24 14 -56
q0 -79 -62 -129.5t-150 -50.5q-51 0 -95 18q-33 -5 -33 -35q0 -15 15.5 -25.5t45.5 -11.5l59 -1q85 -2 139 -41.5t54 -105.5q0 -81 -65 -131t-165 -50zM310 235q35 0 57.5 21t22.5 55q0 28 -20.5 44.5t-55.5 16.5q-34 0 -56.5 -20.5t-22.5 -55.5q0 -28 22.5 -44.5
t52.5 -16.5zM359 531q-32 0 -52.5 21t-20.5 51q0 35 25.5 60t59.5 25q28 0 50.5 -19.5t22.5 -50.5q0 -36 -25.5 -61.5t-59.5 -25.5z" />
    <glyph glyph-name="Gcommaaccent" unicode="&#x122;" horiz-adv-x="723" 
d="M415 -13q-145 0 -234.5 87t-89.5 221q0 164 114 276.5t267 112.5q89 0 159.5 -37.5t114.5 -104.5l-119 -90q-62 90 -162 90q-89 0 -153.5 -68t-64.5 -166q0 -79 52.5 -129t139.5 -50q63 0 118 34l18 100h-128l21 120h274l-51 -290q-119 -106 -276 -106zM267 -265l85 223
l104 -29l-109 -218z" />
    <glyph glyph-name="gcommaaccent" unicode="&#x123;" horiz-adv-x="529" 
d="M269 -148q42 0 67.5 18t25.5 47q0 59 -115 59q-92 0 -92 -59q0 -34 35.5 -49.5t78.5 -15.5zM265 -250q-110 0 -176.5 45.5t-66.5 115.5q0 86 81 129q-41 27 -41 68q0 67 75 94q-34 38 -34 91q0 80 62 130.5t153 50.5q63 0 95 -14h167l-16 -91h-56q14 -24 14 -56
q0 -79 -62 -129.5t-150 -50.5q-51 0 -95 18q-33 -5 -33 -35q0 -15 15.5 -25.5t45.5 -11.5l59 -1q85 -2 139 -41.5t54 -105.5q0 -81 -65 -131t-165 -50zM310 235q35 0 57.5 21t22.5 55q0 28 -20.5 44.5t-55.5 16.5q-34 0 -56.5 -20.5t-22.5 -55.5q0 -28 22.5 -44.5
t52.5 -16.5zM304 543l109 218l80 -24l-85 -223z" />
    <glyph glyph-name="Hcircumflex" unicode="&#x124;" horiz-adv-x="703" 
d="M193 670h146l-47 -262h261l47 262h146l-118 -670h-146l47 271h-261l-47 -271h-146zM329 815l174 89l142 -89l-54 -83l-100 61l-135 -67z" />
    <glyph glyph-name="hcircumflex" unicode="&#x125;" horiz-adv-x="539" 
d="M180 710h134l-53 -293q49 58 119 57q73 -2 116.5 -48.5t43.5 -116.5q0 -8 -2 -24l-50 -285h-134l44 252q0 4 0.5 8.5t1 7t0.5 6.5q0 38 -20 58t-56 20q-35 0 -59 -25.5t-32 -68.5l-44 -258h-134zM280 838l174 89l142 -89l-54 -83l-100 61l-135 -67z" />
    <glyph glyph-name="Hbar" unicode="&#x126;" horiz-adv-x="713" 
d="M165 486h-70l19 108h70l14 76h146l-14 -76h261l14 76h146l-14 -76h70l-19 -108h-70l-85 -486h-146l47 271h-261l-47 -271h-146zM558 408l14 78h-261l-14 -78h261z" />
    <glyph glyph-name="hbar" unicode="&#x127;" horiz-adv-x="551" 
d="M161 531h-68l19 108h68l13 71h134l-13 -71h162l-19 -108h-162l-21 -114q49 58 119 57q73 -2 116.5 -48.5t43.5 -116.5q0 -8 -2 -24l-50 -285h-134l44 252q0 4 0.5 8.5t1 7t0.5 6.5q0 38 -20 58t-56 20q-35 0 -59 -25.5t-32 -68.5l-44 -258h-134z" />
    <glyph glyph-name="Imacron" unicode="&#x12a;" horiz-adv-x="291" 
d="M193 670h146l-118 -670h-146zM180 864h241l-17 -97h-241z" />
    <glyph glyph-name="imacron" unicode="&#x12b;" horiz-adv-x="241" 
d="M134 460h134l-81 -460h-134zM115 654h241l-17 -97h-241z" />
    <glyph glyph-name="Ibreve" unicode="&#x12c;" horiz-adv-x="293" 
d="M193 670h146l-118 -670h-146zM281 726q-63 0 -101 37.5t-38 100.5q0 11 1 18h98v-7q0 -24 13 -38t35 -14q24 0 40.5 16t18.5 43h98q-6 -71 -51 -113.5t-114 -42.5z" />
    <glyph glyph-name="ibreve" unicode="&#x12d;" horiz-adv-x="243" 
d="M135 460h134l-81 -460h-134zM216 516q-63 0 -101 37.5t-38 100.5q0 11 1 18h98v-7q0 -24 13 -38t35 -14q24 0 40.5 16t18.5 43h98q-6 -71 -51 -113.5t-114 -42.5z" />
    <glyph glyph-name="Iogonek" unicode="&#x12e;" horiz-adv-x="298" 
d="M114 -265q-65 0 -103 30t-38 78q0 92 134 157h-30l118 670h146l-118 -670q-124 -64 -124 -121q0 -39 56 -39q13 0 28 4l-18 -104q-32 -5 -51 -5z" />
    <glyph glyph-name="iogonek" unicode="&#x12f;" horiz-adv-x="243" 
d="M78 -265q-65 0 -103 30t-38 78q0 92 134 157h-18l81 460h134l-81 -460q-124 -64 -124 -121q0 -39 56 -39q13 0 28 4l-18 -104q-32 -5 -51 -5zM221 531q-32 0 -52.5 21t-20.5 51q0 35 25.5 60t59.5 25q30 0 51.5 -20t21.5 -51q0 -35 -25.5 -60.5t-59.5 -25.5z" />
    <glyph glyph-name="Idot" unicode="&#x130;" horiz-adv-x="292" 
d="M193 670h146l-118 -670h-146zM284 741q-32 0 -52.5 21t-20.5 51q0 35 25.5 60t59.5 25q28 0 50.5 -19.5t22.5 -50.5q0 -36 -25.5 -61.5t-59.5 -25.5z" />
    <glyph glyph-name="dotlessi" unicode="&#x131;" horiz-adv-x="244" 
d="M136 460h134l-81 -460h-134z" />
    <glyph glyph-name="uni0132" unicode="&#x132;" horiz-adv-x="784" 
d="M193 670h146l-118 -670h-146zM503 -14q-74 0 -124.5 33t-68.5 91l121 79q22 -66 79 -66q40 0 63.5 25.5t30.5 66.5l56 318h-172l25 137h318l-82 -467q-18 -101 -85 -159t-161 -58z" />
    <glyph glyph-name="uni0133" unicode="&#x133;" horiz-adv-x="494" 
d="M138 460h134l-81 -460h-134zM245 -250q-62 0 -105 37l67 108q18 -20 34 -20q37 0 48 49l95 536h134l-98 -551q-13 -74 -60 -116.5t-115 -42.5zM225 531q-32 0 -52.5 21t-20.5 51q0 35 25.5 60t59.5 25q30 0 51.5 -20t21.5 -51q0 -35 -25.5 -60.5t-59.5 -25.5zM471 531
q-32 0 -52.5 21t-20.5 51q0 35 25.5 60t59.5 25q30 0 51.5 -20t21.5 -51q0 -35 -25.5 -60.5t-59.5 -25.5z" />
    <glyph glyph-name="Jcircumflex" unicode="&#x134;" horiz-adv-x="488" 
d="M209 -14q-74 0 -124.5 33t-68.5 91l121 79q22 -66 79 -66q40 0 63.5 25.5t30.5 66.5l56 318h-172l25 137h318l-82 -467q-18 -101 -85 -159t-161 -58zM239 815l174 89l142 -89l-54 -83l-100 61l-135 -67z" />
    <glyph glyph-name="jcircumflex" unicode="&#x135;" horiz-adv-x="247" 
d="M-1 -250q-62 0 -105 37l67 108q18 -20 34 -20q37 0 48 49l95 536h134l-98 -551q-13 -74 -60 -116.5t-115 -42.5zM62 605l174 89l142 -89l-54 -83l-100 61l-135 -67z" />
    <glyph glyph-name="Kcommaaccent" unicode="&#x136;" horiz-adv-x="605" 
d="M193 670h146l-53 -301l261 301h176l-290 -329l172 -341h-170l-158 317l-56 -317h-146zM185 -265l85 223l104 -29l-109 -218z" />
    <glyph glyph-name="kcommaaccent" unicode="&#x137;" horiz-adv-x="496" 
d="M180 710h134l-81 -460l186 210h160l-209 -228l126 -232h-155l-114 220l-38 -220h-134zM123 -265l85 223l104 -29l-109 -218z" />
    <glyph glyph-name="Lacute" unicode="&#x139;" horiz-adv-x="473" 
d="M193 670h146l-94 -533h232l-23 -137h-379zM227 758l129 180l92 -62l-147 -167z" />
    <glyph glyph-name="lacute" unicode="&#x13a;" horiz-adv-x="245" 
d="M180 710h134l-125 -710h-134zM205 781l129 180l92 -62l-147 -167z" />
    <glyph glyph-name="Lcommaaccent" unicode="&#x13b;" horiz-adv-x="473" 
d="M193 670h146l-94 -533h232l-23 -137h-379zM128 -265l85 223l104 -29l-109 -218z" />
    <glyph glyph-name="lcommaaccent" unicode="&#x13c;" horiz-adv-x="244" 
d="M180 710h134l-125 -710h-134zM-25 -265l85 223l104 -29l-109 -218z" />
    <glyph glyph-name="Lcaron" unicode="&#x13d;" horiz-adv-x="473" 
d="M193 670h146l-94 -533h232l-23 -137h-379zM351 481l71 206l105 -25l-93 -199z" />
    <glyph glyph-name="lcaron" unicode="&#x13e;" horiz-adv-x="365" 
d="M180 710h134l-125 -710h-134zM330 521l71 206l105 -25l-93 -199z" />
    <glyph glyph-name="Ldot" unicode="&#x13f;" horiz-adv-x="489" 
d="M454 295q-32 0 -53 21.5t-21 52.5q0 35 27 61.5t61 26.5q30 0 53 -20.5t23 -53.5q0 -37 -27 -62.5t-63 -25.5zM193 670h146l-94 -533h232l-23 -137h-379z" />
    <glyph glyph-name="ldot" unicode="&#x140;" horiz-adv-x="404" 
d="M379 273q-32 0 -53 21.5t-21 52.5q0 35 27 61.5t61 26.5q30 0 53 -20.5t23 -53.5q0 -37 -27 -62.5t-63 -25.5zM180 710h134l-125 -710h-134z" />
    <glyph glyph-name="Lslash" unicode="&#x141;" horiz-adv-x="478" 
d="M120 231l-77 -40l22 121l77 40l56 318h146l-42 -236l142 73l-21 -121l-142 -73l-31 -176h232l-24 -137h-378z" />
    <glyph glyph-name="lslash" unicode="&#x142;" horiz-adv-x="275" 
d="M120 282l-78 -40l22 121l78 40l54 307h134l-41 -230l77 40l-21 -121l-77 -40l-63 -359h-134z" />
    <glyph glyph-name="Nacute" unicode="&#x143;" horiz-adv-x="738" 
d="M287 399l-70 -399h-142l120 682h72l301 -411l71 399h142l-121 -682h-72zM435 758l129 180l92 -62l-147 -167z" />
    <glyph glyph-name="nacute" unicode="&#x144;" horiz-adv-x="538" 
d="M136 460h129l-10 -55q24 30 59.5 49.5t70.5 19.5q72 0 113.5 -46.5t41.5 -119.5q0 -13 -2 -23l-50 -285h-134l44 252q2 14 2 21q0 37 -19 58t-54 21t-59.5 -25t-32.5 -68l-46 -259h-134zM311 548l129 180l92 -62l-147 -167z" />
    <glyph glyph-name="Ncommaaccent" unicode="&#x145;" horiz-adv-x="738" 
d="M287 399l-70 -399h-142l120 682h72l301 -411l71 399h142l-121 -682h-72zM241 -265l85 223l104 -29l-109 -218z" />
    <glyph glyph-name="ncommaaccent" unicode="&#x146;" horiz-adv-x="538" 
d="M136 460h129l-10 -55q24 30 59.5 49.5t70.5 19.5q72 0 113.5 -46.5t41.5 -119.5q0 -13 -2 -23l-50 -285h-134l44 252q2 14 2 21q0 37 -19 58t-54 21t-59.5 -25t-32.5 -68l-46 -259h-134zM123 -265l85 223l104 -29l-109 -218z" />
    <glyph glyph-name="Ncaron" unicode="&#x147;" horiz-adv-x="738" 
d="M287 399l-70 -399h-142l120 682h72l301 -411l71 399h142l-121 -682h-72zM341 806l56 86l103 -63l129 66l28 -89l-174 -90z" />
    <glyph glyph-name="ncaron" unicode="&#x148;" horiz-adv-x="538" 
d="M136 460h129l-10 -55q24 30 59.5 49.5t70.5 19.5q72 0 113.5 -46.5t41.5 -119.5q0 -13 -2 -23l-50 -285h-134l44 252q2 14 2 21q0 37 -19 58t-54 21t-59.5 -25t-32.5 -68l-46 -259h-134zM228 596l56 86l103 -63l129 66l28 -89l-174 -90z" />
    <glyph glyph-name="napostrophe" unicode="&#x149;" horiz-adv-x="590" 
d="M188 460h129l-10 -55q24 30 59.5 49.5t70.5 19.5q72 0 113.5 -46.5t41.5 -119.5q0 -13 -2 -23l-50 -285h-134l44 252q2 14 2 21q0 37 -19 58t-54 21t-59.5 -25t-32.5 -68l-46 -259h-134zM88 509l71 206l105 -25l-93 -199z" />
    <glyph glyph-name="Eng" unicode="&#x14a;" horiz-adv-x="738" 
d="M417 -250q-74 0 -125 33.5t-69 91.5l121 79q20 -62 82 -62q33 -1 58 22t35 62l6 24l-242 381l-67 -381h-141l120 682h76l290 -456l79 444h141l-123 -698q-18 -99 -84.5 -160.5t-156.5 -61.5z" />
    <glyph glyph-name="eng" unicode="&#x14b;" horiz-adv-x="538" 
d="M298 -251q-63 0 -106 37l66 105q14 -19 35 -19q36 0 48 53l57 327q2 14 2 21q0 37 -19 58t-54 21t-59.5 -25t-32.5 -68l-46 -259h-134l81 460h129l-10 -55q24 30 59.5 49.5t70.5 19.5q72 0 113.5 -46.5t41.5 -119.5q0 -13 -2 -23l-66 -375q-14 -73 -61 -117t-113 -44z
" />
    <glyph glyph-name="Omacron" unicode="&#x14c;" horiz-adv-x="762" 
d="M415 -14q-142 0 -232.5 90t-90.5 224q0 106 52.5 195t139.5 139t187 50q142 0 232.5 -90t90.5 -224q0 -106 -52.5 -195t-139.5 -139t-187 -50zM425 128q88 0 151 70t63 161q0 78 -49 130.5t-129 52.5q-88 0 -151 -70t-63 -161q0 -78 49 -130.5t129 -52.5zM391 864h241
l-17 -97h-241z" />
    <glyph glyph-name="omacron" unicode="&#x14d;" horiz-adv-x="554" 
d="M296 -14q-100 0 -165 64t-65 158q0 109 80 187.5t187 78.5q92 0 162.5 -63t70.5 -159q0 -110 -81.5 -188t-188.5 -78zM307 113q51 0 86 39.5t35 92.5q0 45 -28 73.5t-76 28.5q-50 0 -85 -38t-35 -94q0 -46 28 -74t75 -28zM255 654h241l-17 -97h-241z" />
    <glyph glyph-name="Obreve" unicode="&#x14e;" horiz-adv-x="762" 
d="M415 -14q-142 0 -232.5 90t-90.5 224q0 106 52.5 195t139.5 139t187 50q142 0 232.5 -90t90.5 -224q0 -106 -52.5 -195t-139.5 -139t-187 -50zM425 128q88 0 151 70t63 161q0 78 -49 130.5t-129 52.5q-88 0 -151 -70t-63 -161q0 -78 49 -130.5t129 -52.5zM490 726
q-63 0 -101 37.5t-38 100.5q0 11 1 18h98v-7q0 -24 13 -38t35 -14q24 0 40.5 16t18.5 43h98q-6 -71 -51 -113.5t-114 -42.5z" />
    <glyph glyph-name="obreve" unicode="&#x14f;" horiz-adv-x="554" 
d="M296 -14q-100 0 -165 64t-65 158q0 109 80 187.5t187 78.5q92 0 162.5 -63t70.5 -159q0 -110 -81.5 -188t-188.5 -78zM307 113q51 0 86 39.5t35 92.5q0 45 -28 73.5t-76 28.5q-50 0 -85 -38t-35 -94q0 -46 28 -74t75 -28zM357 516q-63 0 -101 37.5t-38 100.5q0 11 1 18
h98v-7q0 -24 13 -38t35 -14q24 0 40.5 16t18.5 43h98q-6 -71 -51 -113.5t-114 -42.5z" />
    <glyph glyph-name="Ohungarumlaut" unicode="&#x150;" horiz-adv-x="762" 
d="M415 -14q-142 0 -232.5 90t-90.5 224q0 106 52.5 195t139.5 139t187 50q142 0 232.5 -90t90.5 -224q0 -106 -52.5 -195t-139.5 -139t-187 -50zM425 128q88 0 151 70t63 161q0 78 -49 130.5t-129 52.5q-88 0 -151 -70t-63 -161q0 -78 49 -130.5t129 -52.5zM357 746
l114 183l93 -49l-134 -174zM519 746l114 183l93 -49l-135 -174z" />
    <glyph glyph-name="ohungarumlaut" unicode="&#x151;" horiz-adv-x="554" 
d="M296 -14q-100 0 -165 64t-65 158q0 109 80 187.5t187 78.5q92 0 162.5 -63t70.5 -159q0 -110 -81.5 -188t-188.5 -78zM307 113q51 0 86 39.5t35 92.5q0 45 -28 73.5t-76 28.5q-50 0 -85 -38t-35 -94q0 -46 28 -74t75 -28zM216 536l114 183l93 -49l-134 -174zM378 536
l114 183l93 -49l-135 -174z" />
    <glyph glyph-name="OE" unicode="&#x152;" horiz-adv-x="825" 
d="M387 0q-121 0 -208.5 90.5t-87.5 212.5q0 156 111 261.5t264 105.5h39h383l-24 -136h-233l-22 -124h170l-24 -137h-170l-24 -136h238l-24 -137h-388zM480 533h-21q-86 0 -149.5 -63.5t-63.5 -156.5q0 -71 46.5 -120.5t118.5 -55.5z" />
    <glyph glyph-name="oe" unicode="&#x153;" horiz-adv-x="887" 
d="M296 -14q-100 0 -165 64t-65 158q0 109 80 187.5t187 78.5q102 0 174 -75q75 75 182 75q96 0 156.5 -57t60.5 -144q0 -40 -11 -82h-331q4 -90 121 -90q62 0 117 44l57 -84q-87 -75 -197 -75q-115 0 -182 73q-79 -73 -184 -73zM307 113q51 0 86 39.5t35 92.5
q0 45 -28 73.5t-76 28.5q-50 0 -85 -38t-35 -94q0 -46 28 -74t75 -28zM774 284q-5 86 -93 86q-71 0 -107 -86h200z" />
    <glyph glyph-name="Racute" unicode="&#x154;" horiz-adv-x="594" 
d="M193 670h210q93 0 149 -57.5t56 -139.5q0 -71 -39 -128.5t-103 -81.5l108 -263h-162l-89 235h-61l-41 -235h-146zM358 364q44 0 73.5 27t29.5 70q0 33 -23 52.5t-67 19.5h-57l-29 -169h73zM361 758l129 180l92 -62l-147 -167z" />
    <glyph glyph-name="racute" unicode="&#x155;" horiz-adv-x="346" 
d="M136 460h129l-10 -54q51 68 120 68q18 0 51 -11l-42 -139q-26 13 -57 13q-37 0 -62 -23t-33 -67l-43 -247h-134zM237 548l129 180l92 -62l-147 -167z" />
    <glyph glyph-name="Rcommaaccent" unicode="&#x156;" horiz-adv-x="594" 
d="M193 670h210q93 0 149 -57.5t56 -139.5q0 -71 -39 -128.5t-103 -81.5l108 -263h-162l-89 235h-61l-41 -235h-146zM358 364q44 0 73.5 27t29.5 70q0 33 -23 52.5t-67 19.5h-57l-29 -169h73zM173 -265l85 223l104 -29l-109 -218z" />
    <glyph glyph-name="rcommaaccent" unicode="&#x157;" horiz-adv-x="346" 
d="M136 460h129l-10 -54q51 68 120 68q18 0 51 -11l-42 -139q-26 13 -57 13q-37 0 -62 -23t-33 -67l-43 -247h-134zM-26 -265l85 223l104 -29l-109 -218z" />
    <glyph glyph-name="Rcaron" unicode="&#x158;" horiz-adv-x="594" 
d="M193 670h210q93 0 149 -57.5t56 -139.5q0 -71 -39 -128.5t-103 -81.5l108 -263h-162l-89 235h-61l-41 -235h-146zM358 364q44 0 73.5 27t29.5 70q0 33 -23 52.5t-67 19.5h-57l-29 -169h73zM268 806l56 86l103 -63l129 66l28 -89l-174 -90z" />
    <glyph glyph-name="rcaron" unicode="&#x159;" horiz-adv-x="346" 
d="M136 460h129l-10 -54q51 68 120 68q18 0 51 -11l-42 -139q-26 13 -57 13q-37 0 -62 -23t-33 -67l-43 -247h-134zM145 596l56 86l103 -63l129 66l28 -89l-174 -90z" />
    <glyph glyph-name="Sacute" unicode="&#x15a;" horiz-adv-x="523" 
d="M278 -18q-86 0 -149.5 42.5t-93.5 117.5l116 76q42 -108 134 -108q36 0 60 20.5t24 52.5q0 23 -20.5 44t-69.5 49q-75 42 -109 87.5t-34 101.5q0 94 66.5 156.5t160.5 62.5q143 0 223 -131l-112 -79q-47 85 -116 85q-31 0 -52 -19.5t-21 -48.5q0 -25 20.5 -44.5
t68.5 -46.5q145 -83 145 -192q0 -98 -70 -162t-171 -64zM344 758l129 180l92 -62l-147 -167z" />
    <glyph glyph-name="sacute" unicode="&#x15b;" horiz-adv-x="461" 
d="M255 -14q-73 0 -133.5 27t-95.5 75l89 85q64 -80 147 -80q54 0 54 35q0 14 -19 25.5t-65 25.5q-135 41 -135 135q0 71 54 115.5t136 44.5q62 0 117 -24t92 -66l-83 -86q-66 69 -133 69q-44 0 -44 -32q0 -14 17.5 -24.5t65.5 -26.5q136 -46 136 -139q0 -73 -56 -116
t-144 -43zM259 548l129 180l92 -62l-147 -167z" />
    <glyph glyph-name="Scircumflex" unicode="&#x15c;" horiz-adv-x="523" 
d="M278 -18q-86 0 -149.5 42.5t-93.5 117.5l116 76q42 -108 134 -108q36 0 60 20.5t24 52.5q0 23 -20.5 44t-69.5 49q-75 42 -109 87.5t-34 101.5q0 94 66.5 156.5t160.5 62.5q143 0 223 -131l-112 -79q-47 85 -116 85q-31 0 -52 -19.5t-21 -48.5q0 -25 20.5 -44.5
t68.5 -46.5q145 -83 145 -192q0 -98 -70 -162t-171 -64zM241 815l174 89l142 -89l-54 -83l-100 61l-135 -67z" />
    <glyph glyph-name="scircumflex" unicode="&#x15d;" horiz-adv-x="461" 
d="M255 -14q-73 0 -133.5 27t-95.5 75l89 85q64 -80 147 -80q54 0 54 35q0 14 -19 25.5t-65 25.5q-135 41 -135 135q0 71 54 115.5t136 44.5q62 0 117 -24t92 -66l-83 -86q-66 69 -133 69q-44 0 -44 -32q0 -14 17.5 -24.5t65.5 -26.5q136 -46 136 -139q0 -73 -56 -116
t-144 -43zM166 605l174 89l142 -89l-54 -83l-100 61l-135 -67z" />
    <glyph glyph-name="Scedilla" unicode="&#x15e;" horiz-adv-x="523" 
d="M232 -265q-37 0 -72 13t-44 22l40 80q5 -6 24 -15.5t40 -9.5q18 0 29 8.5t11 22.5q0 13 -11 22t-31 9h-45l43 102q-63 13 -110.5 53t-70.5 100l116 76q42 -108 134 -108q36 0 60 20.5t24 52.5q0 23 -20.5 44t-69.5 49q-75 42 -109 87.5t-34 101.5q0 94 66.5 156.5
t160.5 62.5q143 0 223 -131l-112 -79q-47 85 -116 85q-31 0 -52 -19.5t-21 -48.5q0 -25 20.5 -44.5t68.5 -46.5q145 -83 145 -192q0 -90 -59.5 -152t-149.5 -72l-15 -36q74 -31 74 -95q0 -51 -40 -84.5t-97 -33.5z" />
    <glyph glyph-name="scedilla" unicode="&#x15f;" horiz-adv-x="461" 
d="M203 -265q-37 0 -72 13t-44 22l40 80q5 -6 24 -15.5t40 -9.5q18 0 29 8.5t11 22.5q0 13 -11 22t-31 9h-45l44 106q-106 20 -162 95l89 85q64 -80 147 -80q54 0 54 35q0 14 -19 25.5t-65 25.5q-135 41 -135 135q0 71 54 115.5t136 44.5q62 0 117 -24t92 -66l-83 -86
q-66 69 -133 69q-44 0 -44 -32q0 -14 17.5 -24.5t65.5 -26.5q136 -46 136 -139q0 -66 -48 -108.5t-125 -48.5l-16 -40q74 -31 74 -95q0 -51 -40 -84.5t-97 -33.5z" />
    <glyph glyph-name="Scaron" unicode="&#x160;" horiz-adv-x="523" 
d="M278 -18q-86 0 -149.5 42.5t-93.5 117.5l116 76q42 -108 134 -108q36 0 60 20.5t24 52.5q0 23 -20.5 44t-69.5 49q-75 42 -109 87.5t-34 101.5q0 94 66.5 156.5t160.5 62.5q143 0 223 -131l-112 -79q-47 85 -116 85q-31 0 -52 -19.5t-21 -48.5q0 -25 20.5 -44.5
t68.5 -46.5q145 -83 145 -192q0 -98 -70 -162t-171 -64zM250 806l56 86l103 -63l129 66l28 -89l-174 -90z" />
    <glyph glyph-name="scaron" unicode="&#x161;" horiz-adv-x="461" 
d="M255 -14q-73 0 -133.5 27t-95.5 75l89 85q64 -80 147 -80q54 0 54 35q0 14 -19 25.5t-65 25.5q-135 41 -135 135q0 71 54 115.5t136 44.5q62 0 117 -24t92 -66l-83 -86q-66 69 -133 69q-44 0 -44 -32q0 -14 17.5 -24.5t65.5 -26.5q136 -46 136 -139q0 -73 -56 -116
t-144 -43zM170 596l56 86l103 -63l129 66l28 -89l-174 -90z" />
    <glyph glyph-name="uni0162" unicode="&#x162;" horiz-adv-x="576" 
d="M247 -265q-37 0 -72 13t-44 22l40 80q5 -6 24 -15.5t40 -9.5q18 0 29 8.5t11 22.5q0 13 -11 22t-31 9h-45l48 113h-26l93 533h-195l25 137h536l-25 -137h-195l-93 -533h-24l-22 -52q74 -31 74 -95q0 -51 -40 -84.5t-97 -33.5z" />
    <glyph glyph-name="uni0163" unicode="&#x163;" horiz-adv-x="402" 
d="M193 -265q-37 0 -72 13t-44 22l40 80q5 -6 24 -15.5t40 -9.5q18 0 29 8.5t11 22.5q0 13 -11 22t-31 9h-45l49 117q-72 34 -72 126q0 12 1 19l2 11l34 192h-71l19 108h71l23 130h134l-23 -130h127l-19 -108h-127l-32 -181q-1 -2 -1 -6q-1 -3 -1 -10q0 -52 55 -52
q29 0 60 19l37 -93q-56 -43 -128 -43l-16 -38q74 -31 74 -95q0 -51 -40 -84.5t-97 -33.5z" />
    <glyph glyph-name="Tcaron" unicode="&#x164;" horiz-adv-x="576" 
d="M303 533h-195l25 137h536l-25 -137h-195l-93 -533h-146zM257 806l56 86l103 -63l129 66l28 -89l-174 -90z" />
    <glyph glyph-name="tcaron" unicode="&#x165;" horiz-adv-x="422" 
d="M272 -14q-77 0 -119 38.5t-42 105.5q0 12 1 19l2 11l34 192h-71l19 108h71l23 130h134l-23 -130h127l-19 -108h-127l-32 -181q-1 -2 -1 -6q-1 -3 -1 -10q0 -52 55 -52q29 0 60 19l37 -93q-56 -43 -128 -43zM362 521l71 206l105 -25l-93 -199z" />
    <glyph glyph-name="Tbar" unicode="&#x166;" horiz-adv-x="576" 
d="M252 240h-114l19 109h114l32 184h-195l25 137h536l-25 -137h-195l-32 -184h115l-19 -109h-115l-42 -240h-146z" />
    <glyph glyph-name="tbar" unicode="&#x167;" horiz-adv-x="401" 
d="M272 -13q-80 0 -120.5 38.5t-40.5 105.5q0 14 1 19q0 6 1 9l5 30h-45l19 108h45l10 55h-70l19 108h71l23 130h134l-23 -130h127l-19 -108h-128l-10 -55h100l-19 -108h-100l-4 -21v-2q0 -3 -0.5 -6.5t-0.5 -6.5q0 -49 56 -49q26 0 58 18q4 -11 17.5 -43t19.5 -49
q-52 -43 -126 -43z" />
    <glyph glyph-name="Umacron" unicode="&#x16a;" horiz-adv-x="685" 
d="M360 -14q-116 0 -188.5 84t-54.5 200l71 400h146l-71 -398q-11 -55 17.5 -99.5t92.5 -44.5q52 0 91.5 40.5t51.5 103.5l71 398h146l-71 -400q-24 -130 -107.5 -207t-194.5 -77zM370 864h241l-17 -97h-241z" />
    <glyph glyph-name="umacron" unicode="&#x16b;" horiz-adv-x="538" 
d="M234 -14q-70 0 -112.5 48t-42.5 119q0 10 2 26l2 14l48 267h134l-45 -249v-5q-1 -4 -1.5 -9.5t-0.5 -9.5q0 -37 19.5 -58t54.5 -21t60 25.5t33 68.5l45 258h134l-81 -460h-129l9 53q-65 -67 -129 -67zM252 654h241l-17 -97h-241z" />
    <glyph glyph-name="Ubreve" unicode="&#x16c;" horiz-adv-x="685" 
d="M360 -14q-116 0 -188.5 84t-54.5 200l71 400h146l-71 -398q-11 -55 17.5 -99.5t92.5 -44.5q52 0 91.5 40.5t51.5 103.5l71 398h146l-71 -400q-24 -130 -107.5 -207t-194.5 -77zM469 726q-63 0 -101 37.5t-38 100.5q0 11 1 18h98v-7q0 -24 13 -38t35 -14q24 0 40.5 16
t18.5 43h98q-6 -71 -51 -113.5t-114 -42.5z" />
    <glyph glyph-name="ubreve" unicode="&#x16d;" horiz-adv-x="538" 
d="M234 -14q-70 0 -112.5 48t-42.5 119q0 10 2 26l2 14l48 267h134l-45 -249v-5q-1 -4 -1.5 -9.5t-0.5 -9.5q0 -37 19.5 -58t54.5 -21t60 25.5t33 68.5l45 258h134l-81 -460h-129l9 53q-65 -67 -129 -67zM355 516q-63 0 -101 37.5t-38 100.5q0 11 1 18h98v-7q0 -24 13 -38
t35 -14q24 0 40.5 16t18.5 43h98q-6 -71 -51 -113.5t-114 -42.5z" />
    <glyph glyph-name="Uring" unicode="&#x16e;" horiz-adv-x="685" 
d="M360 -14q-116 0 -188.5 84t-54.5 200l71 400h146l-71 -398q-11 -55 17.5 -99.5t92.5 -44.5q52 0 91.5 40.5t51.5 103.5l71 398h146l-71 -400q-24 -130 -107.5 -207t-194.5 -77zM468 702q-47 0 -83 30t-36 78q0 51 39.5 86.5t93.5 35.5q47 0 83 -30t36 -78
q0 -51 -39.5 -86.5t-93.5 -35.5zM473 780q20 0 33 11t13 28q0 15 -11.5 25t-30.5 10q-20 0 -33 -11t-13 -28q0 -15 11.5 -25t30.5 -10z" />
    <glyph glyph-name="uring" unicode="&#x16f;" horiz-adv-x="538" 
d="M234 -14q-70 0 -112.5 48t-42.5 119q0 10 2 26l2 14l48 267h134l-45 -249v-5q-1 -4 -1.5 -9.5t-0.5 -9.5q0 -37 19.5 -58t54.5 -21t60 25.5t33 68.5l45 258h134l-81 -460h-129l9 53q-65 -67 -129 -67zM354 492q-47 0 -83 30t-36 78q0 51 39.5 86.5t93.5 35.5q47 0 83 -30
t36 -78q0 -51 -39.5 -86.5t-93.5 -35.5zM359 570q20 0 33 11t13 28q0 15 -11.5 25t-30.5 10q-20 0 -33 -11t-13 -28q0 -15 11.5 -25t30.5 -10z" />
    <glyph glyph-name="Uhungarumlaut" unicode="&#x170;" horiz-adv-x="685" 
d="M360 -14q-116 0 -188.5 84t-54.5 200l71 400h146l-71 -398q-11 -55 17.5 -99.5t92.5 -44.5q52 0 91.5 40.5t51.5 103.5l71 398h146l-71 -400q-24 -130 -107.5 -207t-194.5 -77zM334 746l114 183l93 -49l-134 -174zM496 746l114 183l93 -49l-135 -174z" />
    <glyph glyph-name="uhungarumlaut" unicode="&#x171;" horiz-adv-x="538" 
d="M234 -14q-70 0 -112.5 48t-42.5 119q0 10 2 26l2 14l48 267h134l-45 -249v-5q-1 -4 -1.5 -9.5t-0.5 -9.5q0 -37 19.5 -58t54.5 -21t60 25.5t33 68.5l45 258h134l-81 -460h-129l9 53q-65 -67 -129 -67zM217 536l114 183l93 -49l-134 -174zM379 536l114 183l93 -49
l-135 -174z" />
    <glyph glyph-name="Uogonek" unicode="&#x172;" horiz-adv-x="685" 
d="M359 -265q-65 0 -103 30t-38 78q0 88 103 146q-101 14 -161.5 96t-42.5 185l71 400h146l-71 -398q-11 -55 17.5 -99.5t92.5 -44.5q52 0 91.5 40.5t51.5 103.5l71 398h146l-71 -400q-18 -98 -70 -166t-128 -98q-120 -61 -120 -127q0 -39 56 -39q13 0 28 4l-18 -104
q-32 -5 -51 -5z" />
    <glyph glyph-name="uogonek" unicode="&#x173;" horiz-adv-x="538" 
d="M374 -265q-65 0 -103 30t-38 78q0 91 136 157h-15l9 53q-65 -67 -129 -67q-70 0 -112.5 48t-42.5 119q0 10 2 26l2 14l48 267h134l-45 -249v-5q-1 -4 -1.5 -9.5t-0.5 -9.5q0 -37 19.5 -58t54.5 -21t60 25.5t33 68.5l45 258h134l-81 -460q-124 -64 -124 -121q0 -39 56 -39
q13 0 28 4l-18 -104q-32 -5 -51 -5z" />
    <glyph glyph-name="Wcircumflex" unicode="&#x174;" horiz-adv-x="976" 
d="M128 670h152l57 -383l225 383h83l88 -403l197 403h154l-354 -682h-77l-91 430l-244 -430h-77zM457 815l174 89l142 -89l-54 -83l-100 61l-135 -67z" />
    <glyph glyph-name="wcircumflex" unicode="&#x175;" horiz-adv-x="724" 
d="M81 460h142l36 -230l139 240h77l49 -265l132 255h139l-258 -472h-77l-57 291l-158 -291h-76zM288 605l174 89l142 -89l-54 -83l-100 61l-135 -67z" />
    <glyph glyph-name="Ycircumflex" unicode="&#x176;" horiz-adv-x="549" 
d="M237 240l-129 430h147l75 -271l174 271h163l-284 -428l-42 -242h-146zM243 815l174 89l142 -89l-54 -83l-100 61l-135 -67z" />
    <glyph glyph-name="ycircumflex" unicode="&#x177;" horiz-adv-x="479" 
d="M161 -9l-85 469h131l51 -310l160 310h137l-390 -710h-137zM173 605l174 89l142 -89l-54 -83l-100 61l-135 -67z" />
    <glyph glyph-name="Ydieresis" unicode="&#x178;" horiz-adv-x="549" 
d="M237 240l-129 430h147l75 -271l174 271h163l-284 -428l-42 -242h-146zM292 741q-32 0 -52.5 21t-20.5 51q0 35 25.5 60t59.5 25q28 0 50.5 -19.5t22.5 -50.5q0 -36 -25.5 -61.5t-59.5 -25.5zM499 741q-32 0 -52.5 21t-20.5 51q0 35 25.5 60t59.5 25q28 0 50.5 -19.5
t22.5 -50.5q0 -36 -25.5 -61.5t-59.5 -25.5z" />
    <glyph glyph-name="Zacute" unicode="&#x179;" horiz-adv-x="641" 
d="M50 76l406 457h-307l25 137h545l-14 -77l-406 -456h321l-24 -137h-559zM390 758l129 180l92 -62l-147 -167z" />
    <glyph glyph-name="zacute" unicode="&#x17a;" horiz-adv-x="480" 
d="M42 71l263 267h-198l22 122h401l-13 -71l-258 -267h207l-21 -122h-415zM276 548l129 180l92 -62l-147 -167z" />
    <glyph glyph-name="Zdotaccent" unicode="&#x17b;" horiz-adv-x="641" 
d="M50 76l406 457h-307l25 137h545l-14 -77l-406 -456h321l-24 -137h-559zM444 741q-32 0 -52.5 21t-20.5 51q0 35 25.5 60t59.5 25q28 0 50.5 -19.5t22.5 -50.5q0 -36 -25.5 -61.5t-59.5 -25.5z" />
    <glyph glyph-name="zdotaccent" unicode="&#x17c;" horiz-adv-x="480" 
d="M42 71l263 267h-198l22 122h401l-13 -71l-258 -267h207l-21 -122h-415zM337 531q-32 0 -52.5 21t-20.5 51q0 35 25.5 60t59.5 25q28 0 50.5 -19.5t22.5 -50.5q0 -36 -25.5 -61.5t-59.5 -25.5z" />
    <glyph glyph-name="Zcaron" unicode="&#x17d;" horiz-adv-x="641" 
d="M50 76l406 457h-307l25 137h545l-14 -77l-406 -456h321l-24 -137h-559zM301 806l56 86l103 -63l129 66l28 -89l-174 -90z" />
    <glyph glyph-name="zcaron" unicode="&#x17e;" horiz-adv-x="480" 
d="M42 71l263 267h-198l22 122h401l-13 -71l-258 -267h207l-21 -122h-415zM185 596l56 86l103 -63l129 66l28 -89l-174 -90z" />
    <glyph glyph-name="uni018F" unicode="&#x18f;" horiz-adv-x="738" 
d="M402 -14q-138 0 -224.5 88.5t-86.5 219.5q0 38 14 93h513q-6 68 -54.5 111.5t-120.5 43.5q-88 0 -158 -59l-86 105q112 96 257 96q141 0 230 -88t89 -221q0 -163 -111.5 -276t-261.5 -113zM416 128q59 0 108 39t76 104h-348q11 -63 54.5 -103t109.5 -40z" />
    <glyph glyph-name="florin" unicode="&#x192;" horiz-adv-x="436" 
d="M37 -250q-82 0 -132 53l75 90q21 -28 50 -28q21 0 39 17t26 46l112 427h-80l19 105h88l22 79q20 79 70.5 125t118.5 46q82 0 132 -53l-74 -90q-22 28 -52 28q-21 0 -38.5 -17.5t-24.5 -47.5l-19 -70h110l-19 -105h-119l-115 -435q-22 -80 -71.5 -125t-117.5 -45z" />
    <glyph glyph-name="Aringacute" unicode="&#x1fa;" horiz-adv-x="641" 
d="M374 629q-45 32 -45 86q0 51 39.5 86.5t93.5 35.5q47 0 83 -30t36 -78q0 -35 -19 -64t-52 -44l131 -621h-147l-22 113h-231l-59 -113h-162zM450 239l-36 197l-105 -197h141zM453 685q20 0 33 11t13 28q0 15 -11.5 25t-30.5 10q-20 0 -33 -11t-13 -28q0 -15 11.5 -25
t30.5 -10zM429 923l189 113l41 -96l-196 -93z" />
    <glyph glyph-name="aringacute" unicode="&#x1fb;" horiz-adv-x="509" 
d="M201 -14q-71 0 -114.5 38.5t-43.5 97.5q0 69 55.5 116.5t134.5 47.5q76 0 133 -39q4 11 4 27q0 36 -25.5 59.5t-66.5 23.5q-48 0 -94 -44l-62 99q87 62 171 62q96 0 154 -53t58 -137q0 -21 -4 -41l-42 -243h-134l7 40q-63 -54 -131 -54zM249 87q35 0 64 19.5t37 48.5
q-49 40 -98 40q-33 0 -52.5 -16.5t-19.5 -43.5q0 -23 21 -35.5t48 -12.5zM350 492q-47 0 -83 30t-36 78q0 51 39.5 86.5t93.5 35.5q47 0 83 -30t36 -78q0 -51 -39.5 -86.5t-93.5 -35.5zM355 570q20 0 33 11t13 28q0 15 -11.5 25t-30.5 10q-20 0 -33 -11t-13 -28
q0 -15 11.5 -25t30.5 -10zM328 809l190 114l41 -97l-197 -92z" />
    <glyph glyph-name="AEacute" unicode="&#x1fc;" horiz-adv-x="818" 
d="M411 670h470l-25 -137h-282v-123h198l-24 -137h-174v-136h218l-24 -137h-326l-1 119h-228l-72 -119h-156zM441 245l1 249l-152 -249h151zM471 758l129 180l92 -62l-147 -167z" />
    <glyph glyph-name="aeacute" unicode="&#x1fd;" horiz-adv-x="824" 
d="M226 -14q-80 0 -130 39.5t-50 100.5q0 69 55.5 114.5t134.5 45.5q88 0 134 -30l2 11v3q0 2 0.5 3t0.5 3q0 36 -25.5 59t-66.5 23q-50 0 -94 -41l-62 99q79 58 170 58q115 0 175 -65q20 24 66.5 44.5t87.5 20.5q93 0 154.5 -58t61.5 -144q0 -28 -14 -81h-329
q5 -43 36.5 -66.5t84.5 -23.5q65 0 116 44l58 -85q-86 -74 -197 -74q-118 0 -189 81q-64 -81 -180 -81zM252 87q36 0 63.5 19t37.5 51q-47 38 -98 38q-33 0 -52.5 -16t-19.5 -42q0 -25 21 -37.5t48 -12.5zM710 284q-3 41 -27 63.5t-66 22.5q-38 0 -67 -24t-41 -62h201z
M431 548l129 180l92 -62l-147 -167z" />
    <glyph glyph-name="Oslashacute" unicode="&#x1fe;" horiz-adv-x="762" 
d="M94 12l72 82q-74 88 -74 206q0 156 110 270t269 114q95 0 172 -45l73 83l80 -63l-75 -85q73 -87 73 -204q0 -106 -52.5 -195t-139.5 -139t-187 -50q-95 0 -171 43l-70 -80zM542 524q-38 18 -80 18q-87 0 -151 -67.5t-64 -163.5q0 -53 25 -96zM425 129q89 0 151.5 69
t62.5 161q0 50 -23 94l-270 -308q33 -16 79 -16zM446 758l129 180l92 -62l-147 -167z" />
    <glyph glyph-name="oslashacute" unicode="&#x1ff;" horiz-adv-x="554" 
d="M73 7l47 54q-54 60 -54 147q0 109 80 187.5t187 78.5q61 0 120 -32l50 57l58 -46l-50 -58q55 -62 55 -143q0 -110 -81.5 -188t-188.5 -78q-65 0 -118 29l-47 -53zM364 340q-15 7 -40 7q-50 0 -85 -38t-35 -94q0 -26 9 -47zM307 113q51 0 86 39.5t35 92.5q0 25 -9 45
l-151 -171q18 -6 39 -6zM300 548l129 180l92 -62l-147 -167z" />
    <glyph glyph-name="Scommaaccent" unicode="&#x218;" horiz-adv-x="523" 
d="M278 -18q-86 0 -149.5 42.5t-93.5 117.5l116 76q42 -108 134 -108q36 0 60 20.5t24 52.5q0 23 -20.5 44t-69.5 49q-75 42 -109 87.5t-34 101.5q0 94 66.5 156.5t160.5 62.5q143 0 223 -131l-112 -79q-47 85 -116 85q-31 0 -52 -19.5t-21 -48.5q0 -25 20.5 -44.5
t68.5 -46.5q145 -83 145 -192q0 -98 -70 -162t-171 -64zM129 -265l85 223l104 -29l-109 -218z" />
    <glyph glyph-name="scommaaccent" unicode="&#x219;" horiz-adv-x="461" 
d="M255 -14q-73 0 -133.5 27t-95.5 75l89 85q64 -80 147 -80q54 0 54 35q0 14 -19 25.5t-65 25.5q-135 41 -135 135q0 71 54 115.5t136 44.5q62 0 117 -24t92 -66l-83 -86q-66 69 -133 69q-44 0 -44 -32q0 -14 17.5 -24.5t65.5 -26.5q136 -46 136 -139q0 -73 -56 -116
t-144 -43zM103 -265l85 223l104 -29l-109 -218z" />
    <glyph glyph-name="uni021A" unicode="&#x21a;" horiz-adv-x="576" 
d="M303 533h-195l25 137h536l-25 -137h-195l-93 -533h-146zM137 -265l85 223l104 -29l-109 -218z" />
    <glyph glyph-name="uni021B" unicode="&#x21b;" horiz-adv-x="402" 
d="M272 -14q-77 0 -119 38.5t-42 105.5q0 12 1 19l2 11l34 192h-71l19 108h71l23 130h134l-23 -130h127l-19 -108h-127l-32 -181q-1 -2 -1 -6q-1 -3 -1 -10q0 -52 55 -52q29 0 60 19l37 -93q-56 -43 -128 -43zM98 -265l85 223l104 -29l-109 -218z" />
    <glyph glyph-name="uni0232" unicode="&#x232;" horiz-adv-x="549" 
d="M237 240l-129 430h147l75 -271l174 271h163l-284 -428l-42 -242h-146zM290 864h241l-17 -97h-241z" />
    <glyph glyph-name="uni0233" unicode="&#x233;" horiz-adv-x="479" 
d="M161 -9l-85 469h131l51 -310l160 310h137l-390 -710h-137zM218 654h241l-17 -97h-241z" />
    <glyph glyph-name="uni0244" unicode="&#x244;" horiz-adv-x="693" 
d="M369 -14q-114 0 -182 69t-68 179q0 19 1 26l2 10l14 80h-70l19 108h70l38 212h146l-38 -212h251l38 212h146l-38 -212h70l-19 -108h-70l-18 -105q-20 -116 -101 -187.5t-191 -71.5zM382 128q54 0 89.5 35.5t46.5 99.5l15 87h-251l-14 -78q-1 -3 -1 -8q-1 -5 -1 -17
q0 -55 31 -87t85 -32z" />
    <glyph glyph-name="uni0259" unicode="&#x259;" horiz-adv-x="529" 
d="M282 -14q-95 0 -157 57.5t-62 144.5q0 40 13 81h329q-5 42 -35.5 66.5t-81.5 24.5q-64 0 -116 -45l-58 85q88 74 196 74q106 0 169 -60.5t63 -154.5q0 -116 -76.5 -194.5t-183.5 -78.5zM287 90q37 0 68 25t40 61h-198q3 -42 27 -64t63 -22z" />
    <glyph glyph-name="uni0289" unicode="&#x289;" horiz-adv-x="558" 
d="M244 -14q-70 0 -112.5 48t-42.5 119q0 10 2 26l2 14l8 48h-49l19 106h49l21 113h134l-21 -113h166l20 113h134l-20 -113h50l-19 -106h-50l-42 -241h-129l9 53q-65 -67 -129 -67zM302 108q35 0 60 25.5t33 68.5l7 39h-167l-5 -30v-5q-1 -4 -1.5 -9.5t-0.5 -9.5
q0 -37 19.5 -58t54.5 -21z" />
    <glyph glyph-name="uni02BC" unicode="&#x2bc;" horiz-adv-x="164" 
d="M94 481l71 206l105 -25l-93 -199z" />
    <glyph glyph-name="circumflex" unicode="&#x2c6;" horiz-adv-x="336" 
d="M116 605l174 89l142 -89l-54 -83l-100 61l-135 -67z" />
    <glyph glyph-name="caron" unicode="&#x2c7;" horiz-adv-x="336" 
d="M115 596l56 86l103 -63l129 66l28 -89l-174 -90z" />
    <glyph glyph-name="breve" unicode="&#x2d8;" horiz-adv-x="323" 
d="M266 516q-63 0 -101 37.5t-38 100.5q0 11 1 18h98v-7q0 -24 13 -38t35 -14q24 0 40.5 16t18.5 43h98q-6 -71 -51 -113.5t-114 -42.5z" />
    <glyph glyph-name="dotaccent" unicode="&#x2d9;" horiz-adv-x="177" 
d="M188 531q-32 0 -52.5 21t-20.5 51q0 35 25.5 60t59.5 25q28 0 50.5 -19.5t22.5 -50.5q0 -36 -25.5 -61.5t-59.5 -25.5z" />
    <glyph glyph-name="ring" unicode="&#x2da;" horiz-adv-x="270" 
d="M233 492q-47 0 -83 30t-36 78q0 51 39.5 86.5t93.5 35.5q47 0 83 -30t36 -78q0 -51 -39.5 -86.5t-93.5 -35.5zM238 570q20 0 33 11t13 28q0 15 -11.5 25t-30.5 10q-20 0 -33 -11t-13 -28q0 -15 11.5 -25t30.5 -10z" />
    <glyph glyph-name="ogonek" unicode="&#x2db;" horiz-adv-x="234" 
d="M124 -265q-65 0 -103 30t-38 78q0 96 124 157h126q-124 -64 -124 -121q0 -39 56 -39q13 0 28 4l-18 -104q-32 -5 -51 -5z" />
    <glyph glyph-name="tilde" unicode="&#x2dc;" horiz-adv-x="330" 
d="M108 593q17 39 48 62.5t64 23.5q23 0 55 -17t47 -17q23 0 51 34l58 -55q-17 -39 -47 -62t-63 -23q-21 0 -54 17t-55 17t-45 -34z" />
    <glyph glyph-name="hungarumlaut" unicode="&#x2dd;" horiz-adv-x="365" 
d="M104 536l114 183l93 -49l-134 -174zM266 536l114 183l93 -49l-135 -174z" />
    <glyph glyph-name="uni0301" unicode="&#x301;" horiz-adv-x="0" 
d="M-270 758l129 180l87 -58l-147 -167z" />
    <glyph glyph-name="uni030A" unicode="&#x30a;" horiz-adv-x="0" 
d="M-221 702q-47 0 -83 30t-36 78q0 51 39.5 86.5t93.5 35.5q47 0 83 -30t36 -78q0 -51 -39.5 -86.5t-93.5 -35.5zM-216 780q20 0 33 11t13 28q0 15 -11.5 25t-30.5 10q-20 0 -33 -11t-13 -28q0 -15 11.5 -25t30.5 -10z" />
    <glyph glyph-name="uni0326" unicode="&#x326;" horiz-adv-x="176" 
d="M-36 -265l85 223l104 -29l-109 -218z" />
    <glyph glyph-name="uni0401" unicode="&#x401;" horiz-adv-x="513" 
d="M193 670h383l-25 -137h-237l-21 -123h173l-24 -137h-173l-24 -136h242l-24 -137h-388zM288 741q-32 0 -52.5 21t-20.5 51q0 35 25.5 60t59.5 25q28 0 50.5 -19.5t22.5 -50.5q0 -36 -25.5 -61.5t-59.5 -25.5zM495 741q-32 0 -52.5 21t-20.5 51q0 35 25.5 60t59.5 25
q28 0 50.5 -19.5t22.5 -50.5q0 -36 -25.5 -61.5t-59.5 -25.5z" />
    <glyph glyph-name="uni0402" unicode="&#x402;" horiz-adv-x="706" 
d="M483 -14q-72 0 -105 33l57 110q16 -16 44 -16q29 0 50 25t21 65q0 36 -25.5 57t-75.5 21q-27 0 -73 -8l-47 -273h-146l93 533h-173l25 137h512l-25 -137h-193l-22 -123q39 7 78 7q101 0 160 -54t59 -140q0 -106 -62 -171.5t-152 -65.5z" />
    <glyph glyph-name="uni0403" unicode="&#x403;" horiz-adv-x="485" 
d="M193 670h380l-25 -137h-234l-93 -533h-146zM345 758l129 180l92 -62l-147 -167z" />
    <glyph glyph-name="uni0404" unicode="&#x404;" horiz-adv-x="667" 
d="M413 -14q-142 0 -231.5 89t-89.5 223q0 162 112 274t265 112q90 0 160.5 -38.5t114.5 -105.5l-121 -87q-54 85 -161 85q-64 0 -119.5 -38.5t-75.5 -100.5h268l-21 -120h-264q10 -67 60 -107t126 -40q83 0 145 57l87 -104q-114 -99 -255 -99z" />
    <glyph glyph-name="uni0405" unicode="&#x405;" horiz-adv-x="523" 
d="M278 -18q-86 0 -149.5 42.5t-93.5 117.5l116 76q42 -108 134 -108q36 0 60 20.5t24 52.5q0 23 -20.5 44t-69.5 49q-75 42 -109 87.5t-34 101.5q0 94 66.5 156.5t160.5 62.5q143 0 223 -131l-112 -79q-47 85 -116 85q-31 0 -52 -19.5t-21 -48.5q0 -25 20.5 -44.5
t68.5 -46.5q145 -83 145 -192q0 -98 -70 -162t-171 -64z" />
    <glyph glyph-name="uni0406" unicode="&#x406;" horiz-adv-x="296" 
d="M193 670h146l-118 -670h-146z" />
    <glyph glyph-name="uni0407" unicode="&#x407;" horiz-adv-x="292" 
d="M193 670h146l-118 -670h-146zM183 742q-32 0 -52.5 21t-20.5 51q0 35 25.5 60t59.5 25q28 0 50.5 -19.5t22.5 -50.5q0 -36 -25.5 -61.5t-59.5 -25.5zM388 742q-32 0 -52.5 21t-20.5 51q0 35 25.5 60t59.5 25q28 0 50.5 -19.5t22.5 -50.5q0 -36 -25.5 -61.5t-59.5 -25.5z
" />
    <glyph glyph-name="uni0408" unicode="&#x408;" horiz-adv-x="488" 
d="M209 -14q-74 0 -124.5 33t-68.5 91l121 79q22 -66 79 -66q40 0 63.5 25.5t30.5 66.5l56 318h-172l25 137h318l-82 -467q-18 -101 -85 -159t-161 -58z" />
    <glyph glyph-name="uni0409" unicode="&#x409;" horiz-adv-x="946" 
d="M98 -9q-46 0 -76 11l25 140q16 -9 37 -9q64 0 79 87l79 450h487l-39 -218h57q91 0 151 -60.5t60 -143.5q0 -107 -75.5 -177.5t-184.5 -70.5h-26h-207l93 533h-195l-55 -319q-42 -223 -210 -223zM703 128q45 0 76 29t31 74q0 36 -23.5 60t-63.5 24h-57l-33 -187h70z" />
    <glyph glyph-name="uni040A" unicode="&#x40a;" horiz-adv-x="963" 
d="M193 670h146l-42 -238h261l42 238h146l-43 -239h57q84 0 148 -61t64 -141q0 -99 -74 -164t-181 -65h-235l51 294h-261l-51 -294h-146zM722 137q46 0 75 22t29 61q0 31 -27 54.5t-62 23.5h-57l-28 -161h70z" />
    <glyph glyph-name="uni040B" unicode="&#x40b;" horiz-adv-x="716" 
d="M276 533h-173l25 137h512l-25 -137h-193l-22 -123q43 8 76 8q103 0 160.5 -57t57.5 -151q0 -9 -3 -36l-30 -174h-146l30 174q2 6 2 24q0 85 -100 85q-24 0 -69 -8l-49 -275h-146z" />
    <glyph glyph-name="uni040C" unicode="&#x40c;" horiz-adv-x="605" 
d="M193 670h146l-53 -301l261 301h176l-290 -329l172 -341h-170l-158 317l-56 -317h-146zM403 758l129 180l92 -62l-147 -167z" />
    <glyph glyph-name="uni040E" unicode="&#x40e;" horiz-adv-x="569" 
d="M224 176l-111 494h157l65 -310l188 310h159l-407 -670h-158zM393 725q-66 0 -104.5 38t-38.5 102q0 10 1 17h104v-8q0 -55 46 -55q23 0 38 17t17 46h104q-6 -70 -52 -113.5t-115 -43.5z" />
    <glyph glyph-name="uni040F" unicode="&#x40f;" horiz-adv-x="681" 
d="M267 0h-192l118 670h146l-94 -533h239l94 533h146l-118 -670h-193l-28 -158h-146z" />
    <glyph glyph-name="uni0410" unicode="&#x410;" horiz-adv-x="641" 
d="M404 682h93l144 -682h-147l-22 113h-231l-59 -113h-162zM450 239l-36 197l-105 -197h141z" />
    <glyph glyph-name="uni0411" unicode="&#x411;" horiz-adv-x="566" 
d="M193 670h391l-23 -126h-245l-20 -113h60q90 0 150 -59t60 -138q0 -101 -74.5 -167.5t-181.5 -66.5h-235zM313 132q46 0 76 25.5t30 66.5q0 33 -25 54t-66 21h-55l-29 -167h69z" />
    <glyph glyph-name="uni0412" unicode="&#x412;" horiz-adv-x="568" 
d="M193 670h195q94 0 147 -54t53 -129q0 -50 -26.5 -90t-72.5 -64q73 -48 73 -132q0 -86 -72 -143.5t-173 -57.5h-242zM318 120q45 0 71.5 22.5t26.5 63.5q0 32 -22 53t-62 21h-62l-28 -160h76zM352 400q40 0 64 21t24 59q0 30 -20 50t-54 20h-49l-26 -150h61z" />
    <glyph glyph-name="uni0413" unicode="&#x413;" horiz-adv-x="485" 
d="M193 670h380l-25 -137h-234l-93 -533h-146z" />
    <glyph glyph-name="uni0414" unicode="&#x414;" horiz-adv-x="723" 
d="M42 137h7q50 0 89.5 62t60.5 183l51 288h480l-94 -533h91l-52 -295h-146l28 158h-391l-28 -158h-145zM490 137l69 396h-188l-28 -161q-27 -154 -87 -235h234z" />
    <glyph glyph-name="uni0415" unicode="&#x415;" horiz-adv-x="513" 
d="M193 670h383l-25 -137h-237l-21 -123h173l-24 -137h-173l-24 -136h242l-24 -137h-388z" />
    <glyph glyph-name="uni0416" unicode="&#x416;" horiz-adv-x="924" 
d="M301 359l-171 311h162l162 -300l53 300h146l-53 -300l268 300h176l-299 -331l179 -339h-171l-163 314l-55 -314h-146l55 314l-274 -314h-184z" />
    <glyph glyph-name="uni0417" unicode="&#x417;" horiz-adv-x="533" 
d="M281 -14q-90 0 -153 41t-86 114l124 66q26 -99 112 -99q43 0 74 26.5t31 65.5q0 73 -108 84h-63l20 116h54q57 0 91 23t34 64q0 32 -23.5 54t-61.5 22q-28 0 -50 -15.5t-52 -48.5l-77 90q93 95 207 95q93 0 150 -50t57 -127q0 -56 -29.5 -101t-81.5 -72q78 -50 78 -137
q0 -92 -72 -151.5t-175 -59.5z" />
    <glyph glyph-name="uni0418" unicode="&#x418;" horiz-adv-x="738" 
d="M193 670h146l-71 -398l439 410h76l-120 -682h-146l70 398l-439 -410h-76z" />
    <glyph glyph-name="uni0419" unicode="&#x419;" horiz-adv-x="738" 
d="M193 670h146l-71 -398l439 410h76l-120 -682h-146l70 398l-439 -410h-76zM503 725q-66 0 -104.5 38t-38.5 102q0 10 1 17h104v-8q0 -55 46 -55q23 0 38 17t17 46h104q-6 -70 -52 -113.5t-115 -43.5z" />
    <glyph glyph-name="uni041A" unicode="&#x41a;" horiz-adv-x="605" 
d="M193 670h146l-53 -301l261 301h176l-290 -329l172 -341h-170l-158 317l-56 -317h-146z" />
    <glyph glyph-name="uni041B" unicode="&#x41b;" horiz-adv-x="686" 
d="M98 -9q-46 0 -76 11l25 140q16 -9 37 -9q64 0 79 87l79 450h487l-118 -670h-146l93 533h-195l-55 -319q-42 -223 -210 -223z" />
    <glyph glyph-name="uni041C" unicode="&#x41c;" horiz-adv-x="849" 
d="M195 682h75l205 -363l344 363h75l-120 -682h-146l63 363l-213 -221h-58l-132 241l-67 -383h-146z" />
    <glyph glyph-name="uni041D" unicode="&#x41d;" horiz-adv-x="703" 
d="M193 670h146l-47 -262h261l47 262h146l-118 -670h-146l47 271h-261l-47 -271h-146z" />
    <glyph glyph-name="uni041E" unicode="&#x41e;" horiz-adv-x="762" 
d="M415 -14q-142 0 -232.5 90t-90.5 224q0 106 52.5 195t139.5 139t187 50q142 0 232.5 -90t90.5 -224q0 -106 -52.5 -195t-139.5 -139t-187 -50zM425 128q88 0 151 70t63 161q0 78 -49 130.5t-129 52.5q-88 0 -151 -70t-63 -161q0 -78 49 -130.5t129 -52.5z" />
    <glyph glyph-name="uni041F" unicode="&#x41f;" horiz-adv-x="691" 
d="M193 670h541l-118 -670h-146l93 533h-249l-93 -533h-146z" />
    <glyph glyph-name="uni0420" unicode="&#x420;" horiz-adv-x="571" 
d="M193 670h200q93 0 152 -60t59 -144q0 -105 -75.5 -177t-181.5 -72h-88l-38 -217h-146zM355 354q43 0 72.5 28t29.5 72q0 34 -23.5 56.5t-64.5 22.5h-55l-31 -179h72z" />
    <glyph glyph-name="uni0421" unicode="&#x421;" horiz-adv-x="668" 
d="M419 -14q-145 0 -236 89t-91 223q0 163 112.5 274.5t266.5 111.5q88 0 159 -37t114 -103l-118 -90q-58 88 -161 88q-89 0 -153.5 -66.5t-64.5 -163.5q0 -79 51.5 -131.5t136.5 -52.5q81 0 148 62l86 -105q-114 -99 -250 -99z" />
    <glyph glyph-name="uni0422" unicode="&#x422;" horiz-adv-x="576" 
d="M303 533h-195l25 137h536l-25 -137h-195l-93 -533h-146z" />
    <glyph glyph-name="uni0423" unicode="&#x423;" horiz-adv-x="569" 
d="M224 176l-111 494h157l65 -310l188 310h159l-407 -670h-158z" />
    <glyph glyph-name="uni0424" unicode="&#x424;" horiz-adv-x="857" 
d="M360 32q-122 10 -198.5 87.5t-76.5 187.5q0 139 103 235t245 96h34l16 90h146l-16 -90q124 -10 201 -87.5t77 -187.5q0 -139 -104 -235t-247 -96h-34l-16 -90h-146zM443 501h-19q-75 0 -129.5 -54.5t-54.5 -131.5q0 -60 39 -100t105 -46zM546 169q76 0 133 53.5t57 130.5
q0 60 -40.5 101t-106.5 47l-59 -332h16z" />
    <glyph glyph-name="uni0425" unicode="&#x425;" horiz-adv-x="600" 
d="M263 345l-115 325h161l74 -222l157 222h170l-253 -341l122 -329h-161l-81 227l-163 -227h-169z" />
    <glyph glyph-name="uni0426" unicode="&#x426;" horiz-adv-x="714" 
d="M548 0h-473l118 670h146l-94 -533h238l94 533h146l-94 -533h89l-52 -295h-146z" />
    <glyph glyph-name="uni0427" unicode="&#x427;" horiz-adv-x="614" 
d="M430 210q-38 -9 -70 -9q-105 0 -165 56t-60 149q0 9 2 31l41 233h146l-41 -230q0 -2 -0.5 -7.5t-0.5 -7.5q0 -88 114 -88q30 0 57 7l58 326h146l-118 -670h-146z" />
    <glyph glyph-name="uni0428" unicode="&#x428;" horiz-adv-x="1039" 
d="M193 670h146l-94 -533h225l94 533h146l-94 -533h226l94 533h146l-118 -670h-889z" />
    <glyph glyph-name="uni0429" unicode="&#x429;" horiz-adv-x="1072" 
d="M906 0h-831l118 670h146l-94 -533h225l94 533h146l-94 -533h226l94 533h146l-94 -533h88l-52 -295h-146z" />
    <glyph glyph-name="uni042A" unicode="&#x42a;" horiz-adv-x="599" 
d="M211 533h-103l25 137h249l-38 -215h56q87 0 149.5 -61t62.5 -145q0 -105 -76 -177t-183 -72h-28h-207zM343 137h15q45 0 76 28.5t31 74.5q0 33 -24.5 55.5t-64.5 22.5h-56l-32 -181h55z" />
    <glyph glyph-name="uni042B" unicode="&#x42b;" horiz-adv-x="813" 
d="M193 670h146l-38 -215h51q86 0 149 -61.5t63 -145.5q0 -105 -76.5 -176.5t-182.5 -71.5h-28h-202zM296 137h16q45 0 74.5 28.5t29.5 73.5q0 32 -26 55.5t-62 23.5h-51l-32 -181h51zM710 670h146l-118 -670h-146z" />
    <glyph glyph-name="uni042C" unicode="&#x42c;" horiz-adv-x="556" 
d="M193 670h146l-38 -215h56q87 0 149.5 -61t62.5 -145q0 -105 -76 -177t-183 -72h-28h-207zM300 137h15q45 0 76 28.5t31 74.5q0 33 -24.5 55.5t-64.5 22.5h-56l-32 -181h55z" />
    <glyph glyph-name="uni042D" unicode="&#x42d;" horiz-adv-x="668" 
d="M329 -14q-91 0 -163.5 39t-115.5 107l118 88q57 -88 166 -88q67 0 120.5 41t75.5 106h-248l21 120h242q-11 63 -58.5 101t-117.5 38q-83 0 -147 -58l-86 105q110 99 252 99q141 0 230 -89.5t89 -223.5q0 -163 -112.5 -274t-265.5 -111z" />
    <glyph glyph-name="uni042E" unicode="&#x42e;" horiz-adv-x="1000" 
d="M655 -14q-132 0 -218 80.5t-96 204.5h-73l-47 -271h-146l118 670h146l-47 -262h67q26 112 130.5 194t223.5 82q140 0 228.5 -89t88.5 -223q0 -162 -111.5 -274t-263.5 -112zM665 128q88 0 149 71t61 162q0 77 -48 129t-124 52q-84 0 -146 -68t-62 -165q0 -77 47 -129
t123 -52z" />
    <glyph glyph-name="uni042F" unicode="&#x42f;" horiz-adv-x="587" 
d="M225 276q-41 27 -65.5 69.5t-24.5 91.5q0 101 73.5 167t178.5 66h243l-118 -670h-146l41 235h-45l-163 -235h-169zM430 365l31 175h-75q-46 0 -75 -25.5t-29 -69.5q0 -33 23.5 -54.5t64.5 -25.5h60z" />
    <glyph glyph-name="uni0430" unicode="&#x430;" horiz-adv-x="509" 
d="M201 -14q-71 0 -114.5 38.5t-43.5 97.5q0 69 55.5 116.5t134.5 47.5q76 0 133 -39q4 11 4 27q0 36 -25.5 59.5t-66.5 23.5q-48 0 -94 -44l-62 99q87 62 171 62q96 0 154 -53t58 -137q0 -21 -4 -41l-42 -243h-134l7 40q-63 -54 -131 -54zM249 87q35 0 64 19.5t37 48.5
q-49 40 -98 40q-33 0 -52.5 -16.5t-19.5 -43.5q0 -23 21 -35.5t48 -12.5z" />
    <glyph glyph-name="uni0431" unicode="&#x431;" horiz-adv-x="560" 
d="M306 -14q-105 0 -166.5 62.5t-61.5 164.5q0 23 16 119q28 166 102 246t204 82q61 0 94 8t60 30l45 -101q-30 -33 -73 -47.5t-117 -14.5q-72 0 -112.5 -33t-60.5 -111q58 53 131 53q90 0 146.5 -59t56.5 -144q0 -110 -78 -182.5t-186 -72.5zM313 108q48 0 82.5 35.5
t34.5 85.5q0 42 -28 67.5t-75 25.5q-48 0 -82 -33t-34 -83q0 -42 28 -70t74 -28z" />
    <glyph glyph-name="uni0432" unicode="&#x432;" horiz-adv-x="501" 
d="M136 460h212q61 0 109.5 -37t48.5 -89q0 -35 -20.5 -63t-55.5 -44q60 -35 60 -94q0 -60 -51 -96.5t-128 -36.5h-28h-228zM289 99h8q26 0 43 12.5t17 31.5q0 18 -15.5 29t-37.5 11h-83l-15 -84h83zM305 282h11q22 0 37.5 11t15.5 29q0 16 -13.5 27.5t-35.5 11.5h-68
l-14 -79h67z" />
    <glyph glyph-name="uni0433" unicode="&#x433;" horiz-adv-x="387" 
d="M136 460h312l-22 -122h-178l-59 -338h-134z" />
    <glyph glyph-name="uni0434" unicode="&#x434;" horiz-adv-x="577" 
d="M40 119h5q36 0 64.5 43t41.5 120l32 178h387l-61 -341h68l-43 -249h-134l23 130h-269l-23 -130h-133zM376 122l38 216h-119l-10 -60q-17 -99 -65 -156h156z" />
    <glyph glyph-name="uni0435" unicode="&#x435;" horiz-adv-x="529" 
d="M300 -14q-106 0 -170.5 61t-64.5 155q0 116 76.5 194t185.5 78q96 0 156.5 -57t60.5 -144q0 -40 -11 -82h-331q0 -38 33 -64t88 -26q62 0 117 44l57 -84q-87 -75 -197 -75zM412 284q-5 86 -93 86q-71 0 -107 -86h200z" />
    <glyph glyph-name="uni0436" unicode="&#x436;" horiz-adv-x="742" 
d="M213 246l-119 214h146l107 -215l38 215h134l-38 -215l184 215h158l-212 -234l130 -226h-154l-112 215l-37 -215h-134l37 215l-186 -215h-169z" />
    <glyph glyph-name="uni0437" unicode="&#x437;" horiz-adv-x="456" 
d="M253 -13q-152 0 -227 101l85 80q60 -75 136 -75q31 0 52 13t21 35q0 20 -25 33t-63 13h-61l17 93h73q33 0 53.5 12.5t20.5 34.5q0 41 -73 41q-53 0 -106 -39l-49 87q86 56 177 56q82 0 135.5 -39t53.5 -96q0 -73 -73 -109q54 -32 54 -93q0 -65 -58.5 -106.5t-142.5 -41.5
z" />
    <glyph glyph-name="uni0438" unicode="&#x438;" horiz-adv-x="549" 
d="M136 460h134l-42 -235l271 245h77l-82 -470h-135l41 235l-271 -245h-76z" />
    <glyph glyph-name="uni0439" unicode="&#x439;" horiz-adv-x="549" 
d="M136 460h134l-42 -235l271 245h77l-82 -470h-135l41 235l-271 -245h-76zM365 515q-64 0 -102 38t-38 102q0 10 1 17h104v-9q0 -54 43 -54q48 0 53 63h104q-6 -71 -51 -114t-114 -43z" />
    <glyph glyph-name="uni043A" unicode="&#x43a;" horiz-adv-x="496" 
d="M136 460h134l-38 -215l187 215h160l-210 -234l127 -226h-155l-115 215l-37 -215h-134z" />
    <glyph glyph-name="uni043B" unicode="&#x43b;" horiz-adv-x="541" 
d="M81 -9q-41 0 -58 7l24 133q15 -6 28 -6q39 0 51 62l49 273h392l-81 -460h-134l59 338h-124l-28 -162q-32 -185 -178 -185z" />
    <glyph glyph-name="uni043C" unicode="&#x43c;" horiz-adv-x="638" 
d="M137 470h76l149 -230l227 230h76l-82 -470h-134l36 208l-121 -115h-56l-79 133l-40 -226h-134z" />
    <glyph glyph-name="uni043D" unicode="&#x43d;" horiz-adv-x="538" 
d="M136 460h134l-29 -165h160l29 165h134l-81 -460h-134l30 173h-160l-30 -173h-134z" />
    <glyph glyph-name="uni043E" unicode="&#x43e;" horiz-adv-x="554" 
d="M296 -14q-100 0 -165 64t-65 158q0 109 80 187.5t187 78.5q92 0 162.5 -63t70.5 -159q0 -110 -81.5 -188t-188.5 -78zM307 113q51 0 86 39.5t35 92.5q0 45 -28 73.5t-76 28.5q-50 0 -85 -38t-35 -94q0 -46 28 -74t75 -28z" />
    <glyph glyph-name="uni043F" unicode="&#x43f;" horiz-adv-x="531" 
d="M136 460h421l-81 -460h-134l59 338h-153l-59 -338h-134z" />
    <glyph glyph-name="uni0440" unicode="&#x440;" horiz-adv-x="576" 
d="M327 108q51 0 88.5 42t37.5 96q0 46 -29.5 76t-76.5 30q-51 0 -88 -38.5t-37 -96.5q0 -46 29 -77.5t76 -31.5zM136 460h129l-9 -50q20 26 57.5 45t78.5 19q88 0 142.5 -60.5t54.5 -151.5q0 -114 -74 -195t-174 -81q-92 0 -144 66l-53 -302h-134z" />
    <glyph glyph-name="uni0441" unicode="&#x441;" horiz-adv-x="506" 
d="M300 -14q-103 0 -168.5 63.5t-65.5 157.5q0 110 81 188.5t190 78.5q66 0 121.5 -30.5t86.5 -82.5l-108 -80q-38 66 -108 66q-52 0 -88.5 -37t-36.5 -94q0 -46 29.5 -74.5t79.5 -28.5q58 0 107 49l78 -97q-87 -79 -198 -79z" />
    <glyph glyph-name="uni0442" unicode="&#x442;" horiz-adv-x="436" 
d="M205 338h-131l22 122h396l-22 -122h-131l-59 -338h-134z" />
    <glyph glyph-name="uni0443" unicode="&#x443;" horiz-adv-x="479" 
d="M161 -9l-85 469h131l51 -310l160 310h137l-390 -710h-137z" />
    <glyph glyph-name="uni0444" unicode="&#x444;" horiz-adv-x="673" 
d="M331 352h-11q-49 0 -83 -40t-34 -101q0 -42 23 -70.5t62 -32.5zM266 -14q-89 8 -144.5 71t-55.5 151q0 110 78 188t183 78h25l42 236h134l-42 -236q89 -8 145 -70t56 -150q0 -110 -80 -189.5t-186 -79.5h-21l-42 -235h-134zM433 108q48 0 81.5 40.5t33.5 102.5
q0 43 -22 70.5t-61 30.5l-43 -244h11z" />
    <glyph glyph-name="uni0445" unicode="&#x445;" horiz-adv-x="478" 
d="M189 244l-97 216h147l56 -133l102 133h156l-191 -234l100 -226h-147l-59 141l-106 -141h-155z" />
    <glyph glyph-name="uni0446" unicode="&#x446;" horiz-adv-x="559" 
d="M405 0h-350l81 460h134l-60 -338h146l60 338h134l-60 -339h70l-44 -251h-134z" />
    <glyph glyph-name="uni0447" unicode="&#x447;" horiz-adv-x="505" 
d="M338 126q-32 -5 -50 -5q-97 0 -146.5 42t-49.5 120q0 12 3 33l26 144h134l-26 -143q-1 -1 -1 -3v-8q0 -63 86 -63q26 0 46 4l37 213h134l-81 -460h-134z" />
    <glyph glyph-name="uni0448" unicode="&#x448;" horiz-adv-x="790" 
d="M136 460h134l-60 -338h139l60 338h134l-60 -338h139l60 338h134l-81 -460h-680z" />
    <glyph glyph-name="uni0449" unicode="&#x449;" horiz-adv-x="826" 
d="M672 0h-617l81 460h134l-60 -338h139l60 338h134l-60 -338h139l60 338h134l-60 -338h71l-44 -252h-134z" />
    <glyph glyph-name="uni044A" unicode="&#x44a;" horiz-adv-x="518" 
d="M152 338h-78l22 122h212l-25 -138h76q69 0 116 -43.5t47 -102.5q0 -77 -52.5 -126.5t-138.5 -49.5h-238zM319 110q30 0 49 16t19 42q0 20 -16 34t-40 14h-66l-19 -106h73z" />
    <glyph glyph-name="uni044B" unicode="&#x44b;" horiz-adv-x="685" 
d="M136 460h134l-25 -138h64q73 0 118 -43t45 -102q0 -77 -53 -127t-139 -50h-225zM269 110q29 0 48.5 16.5t19.5 42.5q0 20 -15.5 33.5t-40.5 13.5h-54l-19 -106h61zM577 460h134l-81 -460h-134z" />
    <glyph glyph-name="uni044C" unicode="&#x44c;" horiz-adv-x="481" 
d="M136 460h134l-25 -138h76q72 0 118.5 -43.5t46.5 -102.5q0 -76 -53 -126t-139 -50h-239zM283 110q30 0 49 16t19 43q0 20 -17 33.5t-41 13.5h-66l-19 -106h75z" />
    <glyph glyph-name="uni044D" unicode="&#x44d;" horiz-adv-x="506" 
d="M249 -14q-68 0 -123.5 31t-86.5 83l108 82q41 -69 110 -69q42 0 71 21t40 51h-154l17 93h147q-22 69 -100 69q-51 0 -102 -48l-76 97q84 78 196 78q99 0 163 -64.5t64 -156.5q0 -111 -82 -189t-192 -78z" />
    <glyph glyph-name="uni044E" unicode="&#x44e;" horiz-adv-x="742" 
d="M486 -14q-88 0 -148.5 53t-72.5 134h-46l-30 -173h-134l81 460h134l-29 -165h44q18 73 87.5 126t154.5 53q97 0 161 -64t64 -157q0 -110 -79.5 -188.5t-186.5 -78.5zM497 113q50 0 83.5 40.5t33.5 93.5q0 45 -26.5 72.5t-71.5 27.5q-48 0 -82 -38.5t-34 -95.5
q0 -45 26 -72.5t71 -27.5z" />
    <glyph glyph-name="uni044F" unicode="&#x44f;" horiz-adv-x="506" 
d="M170 170q-32 18 -51 49t-19 66q0 77 52.5 126t139.5 49h28h212l-81 -460h-134l24 141h-46l-106 -141h-154zM360 246l18 104h-68h-10q-27 0 -46.5 -16t-19.5 -40q0 -20 15.5 -33t42.5 -15h68z" />
    <glyph glyph-name="uni0451" unicode="&#x451;" horiz-adv-x="529" 
d="M300 -14q-106 0 -170.5 61t-64.5 155q0 116 76.5 194t185.5 78q96 0 156.5 -57t60.5 -144q0 -40 -11 -82h-331q0 -38 33 -64t88 -26q62 0 117 44l57 -84q-87 -75 -197 -75zM412 284q-5 86 -93 86q-71 0 -107 -86h200zM258 531q-32 0 -52.5 21t-20.5 51q0 35 25.5 60
t59.5 25q28 0 50.5 -19.5t22.5 -50.5q0 -36 -25.5 -61.5t-59.5 -25.5zM465 531q-32 0 -52.5 21t-20.5 51q0 35 25.5 60t59.5 25q28 0 50.5 -19.5t22.5 -50.5q0 -36 -25.5 -61.5t-59.5 -25.5z" />
    <glyph glyph-name="uni0452" unicode="&#x452;" horiz-adv-x="546" 
d="M311 -250q-64 0 -107 37l66 105q13 -19 35 -19q17 0 30.5 15t18.5 39l48 274q2 6 2 26q0 36 -19.5 58t-54.5 22t-59.5 -25.5t-32.5 -69.5l-36 -212h-134l88 501h-68l19 108h68l18 101h134l-18 -101h162l-19 -108h-162l-23 -128q54 51 122 51t111.5 -47t43.5 -116
q0 -4 -0.5 -10t-0.5 -8q-1 -3 -1 -8l-57 -325q-13 -74 -60 -117t-114 -43z" />
    <glyph glyph-name="uni0453" unicode="&#x453;" horiz-adv-x="387" 
d="M136 460h312l-22 -122h-178l-59 -338h-134zM245 548l129 180l92 -62l-147 -167z" />
    <glyph glyph-name="uni0454" unicode="&#x454;" horiz-adv-x="505" 
d="M300 -14q-103 0 -168.5 64t-65.5 159q0 110 80 187.5t187 77.5q65 0 121 -30.5t88 -83.5l-109 -80q-42 67 -106 67q-33 0 -62 -19.5t-44 -49.5h156l-17 -93h-151q8 -33 35.5 -52.5t68.5 -19.5q57 0 107 48l77 -97q-85 -78 -197 -78z" />
    <glyph glyph-name="uni0455" unicode="&#x455;" horiz-adv-x="461" 
d="M255 -14q-73 0 -133.5 27t-95.5 75l89 85q64 -80 147 -80q54 0 54 35q0 14 -19 25.5t-65 25.5q-135 41 -135 135q0 71 54 115.5t136 44.5q62 0 117 -24t92 -66l-83 -86q-66 69 -133 69q-44 0 -44 -32q0 -14 17.5 -24.5t65.5 -26.5q136 -46 136 -139q0 -73 -56 -116
t-144 -43z" />
    <glyph glyph-name="uni0456" unicode="&#x456;" horiz-adv-x="247" 
d="M138 460h134l-81 -460h-134zM225 531q-32 0 -52.5 21t-20.5 51q0 35 25.5 60t59.5 25q30 0 51.5 -20t21.5 -51q0 -35 -25.5 -60.5t-59.5 -25.5z" />
    <glyph glyph-name="uni0457" unicode="&#x457;" horiz-adv-x="248" 
d="M138 460h134l-81 -460h-134zM143 540q-27 0 -44.5 18.5t-17.5 45.5q0 29 21.5 53t53.5 24q28 0 45.5 -19.5t17.5 -46.5q0 -30 -23 -52.5t-53 -22.5zM303 540q-26 0 -43 18.5t-17 45.5q0 29 21 53t52 24q29 0 46.5 -18.5t17.5 -46.5q0 -31 -23 -53.5t-54 -22.5z" />
    <glyph glyph-name="uni0458" unicode="&#x458;" horiz-adv-x="247" 
d="M-1 -250q-62 0 -105 37l67 108q18 -20 34 -20q37 0 48 49l95 536h134l-98 -551q-13 -74 -60 -116.5t-115 -42.5zM225 531q-32 0 -52.5 21t-20.5 51q0 35 25.5 60t59.5 25q30 0 51.5 -20t21.5 -51q0 -35 -25.5 -60.5t-59.5 -25.5z" />
    <glyph glyph-name="uni0459" unicode="&#x459;" horiz-adv-x="778" 
d="M81 -9q-41 0 -58 7l24 133q15 -6 28 -6q39 0 51 62l49 273h392l-25 -138h76q72 0 119 -43t47 -103q0 -76 -53.5 -126t-139.5 -50h-239l59 338h-124l-28 -162q-32 -185 -178 -185zM580 101q30 0 48.5 18.5t18.5 45.5q0 21 -15.5 36t-39.5 15h-68l-21 -115h77z" />
    <glyph glyph-name="uni045A" unicode="&#x45a;" horiz-adv-x="775" 
d="M136 460h134l-27 -153h160l27 153h134l-27 -153h76q73 0 119 -41.5t46 -99.5q0 -73 -52 -119.5t-137 -46.5h-240l32 185h-160l-32 -185h-134zM580 110q28 0 45.5 13.5t17.5 35.5q0 18 -15.5 29.5t-41.5 12.5h-68l-16 -91h78z" />
    <glyph glyph-name="uni045B" unicode="&#x45b;" horiz-adv-x="546" 
d="M156 501h-68l19 108h68l18 101h134l-18 -101h162l-19 -108h-162l-23 -128q54 51 122 51t111.5 -47t43.5 -116q0 -4 -0.5 -10t-0.5 -8q-1 -3 -1 -8l-41 -235h-134l35 201q2 6 2 26q0 36 -19.5 58t-54.5 22t-59.5 -25.5t-32.5 -69.5l-36 -212h-134z" />
    <glyph glyph-name="uni045C" unicode="&#x45c;" horiz-adv-x="496" 
d="M136 460h134l-38 -215l187 215h160l-210 -234l127 -226h-155l-115 215l-37 -215h-134zM295 548l129 180l92 -62l-147 -167z" />
    <glyph glyph-name="uni045E" unicode="&#x45e;" horiz-adv-x="479" 
d="M161 -9l-85 469h131l51 -310l160 310h137l-390 -710h-137zM314 515q-64 0 -102 38t-38 102q0 10 1 17h104v-9q0 -54 43 -54q48 0 53 63h104q-6 -71 -51 -114t-114 -43z" />
    <glyph glyph-name="uni045F" unicode="&#x45f;" horiz-adv-x="524" 
d="M196 0h-141l81 460h134l-60 -338h146l60 338h134l-81 -460h-142l-23 -130h-131z" />
    <glyph glyph-name="uni0490" unicode="&#x490;" horiz-adv-x="486" 
d="M193 670h235l20 115h146l-45 -252h-235l-93 -533h-146z" />
    <glyph glyph-name="uni0491" unicode="&#x491;" horiz-adv-x="387" 
d="M136 460h178l16 95h134l-38 -217h-178l-59 -338h-134z" />
    <glyph glyph-name="Wgrave" unicode="&#x1e80;" horiz-adv-x="976" 
d="M128 670h152l57 -383l225 383h83l88 -403l197 403h154l-354 -682h-77l-91 430l-244 -430h-77zM479 885l102 53l65 -180l-80 -40z" />
    <glyph glyph-name="wgrave" unicode="&#x1e81;" horiz-adv-x="724" 
d="M81 460h142l36 -230l139 240h77l49 -265l132 255h139l-258 -472h-77l-57 291l-158 -291h-76zM320 675l102 53l65 -180l-80 -40z" />
    <glyph glyph-name="Wacute" unicode="&#x1e82;" horiz-adv-x="976" 
d="M128 670h152l57 -383l225 383h83l88 -403l197 403h154l-354 -682h-77l-91 430l-244 -430h-77zM548 758l129 180l92 -62l-147 -167z" />
    <glyph glyph-name="wacute" unicode="&#x1e83;" horiz-adv-x="724" 
d="M81 460h142l36 -230l139 240h77l49 -265l132 255h139l-258 -472h-77l-57 291l-158 -291h-76zM380 548l129 180l92 -62l-147 -167z" />
    <glyph glyph-name="Wdieresis" unicode="&#x1e84;" horiz-adv-x="976" 
d="M128 670h152l57 -383l225 383h83l88 -403l197 403h154l-354 -682h-77l-91 430l-244 -430h-77zM505 741q-32 0 -52.5 21t-20.5 51q0 35 25.5 60t59.5 25q28 0 50.5 -19.5t22.5 -50.5q0 -36 -25.5 -61.5t-59.5 -25.5zM712 741q-32 0 -52.5 21t-20.5 51q0 35 25.5 60
t59.5 25q28 0 50.5 -19.5t22.5 -50.5q0 -36 -25.5 -61.5t-59.5 -25.5z" />
    <glyph glyph-name="wdieresis" unicode="&#x1e85;" horiz-adv-x="724" 
d="M81 460h142l36 -230l139 240h77l49 -265l132 255h139l-258 -472h-77l-57 291l-158 -291h-76zM333 531q-32 0 -52.5 21t-20.5 51q0 35 25.5 60t59.5 25q28 0 50.5 -19.5t22.5 -50.5q0 -36 -25.5 -61.5t-59.5 -25.5zM540 531q-32 0 -52.5 21t-20.5 51q0 35 25.5 60t59.5 25
q28 0 50.5 -19.5t22.5 -50.5q0 -36 -25.5 -61.5t-59.5 -25.5z" />
    <glyph glyph-name="uni1E9E" unicode="&#x1e9e;" horiz-adv-x="684" 
d="M443 -14q-82 0 -140 39l73 117q28 -25 74 -25q44 0 71.5 25.5t27.5 67.5q0 33 -23 53.5t-64 20.5h-85l15 90l118 162h-101q-45 0 -76.5 -26.5t-39.5 -71.5l-77 -438h-146l78 450q16 96 91.5 158t177.5 62h291l-14 -77l-138 -199q61 -21 97.5 -69t36.5 -110
q0 -98 -72 -163.5t-175 -65.5z" />
    <glyph glyph-name="Ygrave" unicode="&#x1ef2;" horiz-adv-x="549" 
d="M237 240l-129 430h147l75 -271l174 271h163l-284 -428l-42 -242h-146zM281 885l102 53l65 -180l-80 -40z" />
    <glyph glyph-name="ygrave" unicode="&#x1ef3;" horiz-adv-x="479" 
d="M161 -9l-85 469h131l51 -310l160 310h137l-390 -710h-137zM210 675l102 53l65 -180l-80 -40z" />
    <glyph glyph-name="endash" unicode="&#x2013;" horiz-adv-x="495" 
d="M75 314h455l-19 -108h-455z" />
    <glyph glyph-name="emdash" unicode="&#x2014;" horiz-adv-x="715" 
d="M75 314h675l-19 -108h-675z" />
    <glyph glyph-name="quoteleft" unicode="&#x2018;" horiz-adv-x="213" 
d="M115 485l106 218l82 -21l-82 -225z" />
    <glyph glyph-name="quoteright" unicode="&#x2019;" horiz-adv-x="213" 
d="M114 478l81 225l107 -28l-107 -218z" />
    <glyph glyph-name="quotesinglbase" unicode="&#x201a;" horiz-adv-x="203" 
d="M7 -130l71 227l108 -22l-96 -221z" />
    <glyph glyph-name="quotedblleft" unicode="&#x201c;" horiz-adv-x="362" 
d="M115 483l96 222l83 -16l-71 -227zM272 476l97 222l83 -16l-71 -227z" />
    <glyph glyph-name="quotedblright" unicode="&#x201d;" horiz-adv-x="361" 
d="M114 477l71 227l108 -22l-96 -221zM270 470l71 227l109 -22l-96 -221z" />
    <glyph glyph-name="quotedblbase" unicode="&#x201e;" horiz-adv-x="361" 
d="M7 -130l71 227l108 -22l-96 -221zM163 -137l71 227l108 -22l-95 -221z" />
    <glyph glyph-name="dagger" unicode="&#x2020;" horiz-adv-x="536" 
d="M252 323h-161l25 137h161l37 210h144l-37 -210h161l-25 -137h-161l-111 -573h-124z" />
    <glyph glyph-name="daggerdbl" unicode="&#x2021;" horiz-adv-x="536" 
d="M202 0h-167l24 137h165l29 186h-162l25 137h162l37 210h142l-37 -210h162l-25 -137h-162l-36 -186h166l-24 -137h-167l-50 -250h-122z" />
    <glyph glyph-name="bullet" unicode="&#x2022;" horiz-adv-x="391" 
d="M233 163q-39 0 -64.5 26.5t-25.5 62.5q0 42 32.5 72.5t73.5 30.5q34 0 60.5 -25t26.5 -61q0 -44 -31 -75t-72 -31z" />
    <glyph glyph-name="ellipsis" unicode="&#x2026;" horiz-adv-x="856" 
d="M147 -9q-33 0 -54.5 21t-21.5 52q0 37 26.5 63.5t61.5 26.5q30 0 52.5 -21t22.5 -53q0 -38 -25.5 -63.5t-61.5 -25.5zM432 -9q-32 0 -53.5 21.5t-21.5 51.5q0 37 26.5 63.5t61.5 26.5q30 0 52.5 -21t22.5 -53q0 -37 -26 -63t-62 -26zM717 -9q-32 0 -53 21t-21 52
q0 37 26.5 63.5t61.5 26.5q29 0 52 -21.5t23 -53.5q0 -36 -26.5 -62t-62.5 -26z" />
    <glyph glyph-name="perthousand" unicode="&#x2030;" horiz-adv-x="1286" 
d="M642 670h130l-405 -670h-130zM275 331q-73 0 -120 46t-47 114q0 80 57.5 136.5t136.5 56.5q66 0 117 -44.5t51 -114.5q0 -82 -58 -138t-137 -56zM282 437q30 0 52.5 22.5t22.5 55.5q0 27 -17.5 45t-45.5 18q-32 0 -53 -23.5t-21 -56.5q0 -26 17 -43.5t45 -17.5zM704 -14
q-72 0 -119.5 46.5t-47.5 115.5q0 76 58 133.5t138 57.5q73 0 119.5 -45.5t46.5 -112.5q0 -82 -58 -138.5t-137 -56.5zM712 92q31 0 52.5 22t21.5 57q0 27 -17 44.5t-44 17.5q-32 0 -54 -23t-22 -56q0 -26 18.5 -44t44.5 -18zM1101 -14q-72 0 -119.5 46.5t-47.5 115.5
q0 76 58 133.5t138 57.5q73 0 119.5 -45.5t46.5 -112.5q0 -82 -58 -138.5t-137 -56.5zM1109 92q31 0 52.5 22t21.5 57q0 27 -17 44.5t-44 17.5q-32 0 -54 -23t-22 -56q0 -26 18.5 -44t44.5 -18z" />
    <glyph glyph-name="guilsinglleft" unicode="&#x2039;" horiz-adv-x="338" 
d="M64 250l237 207l69 -79l-158 -138l101 -127l-85 -70z" />
    <glyph glyph-name="guilsinglright" unicode="&#x203a;" horiz-adv-x="338" 
d="M54 122l158 138l-101 127l85 70l164 -207l-237 -207z" />
    <glyph glyph-name="fraction" unicode="&#x2044;" horiz-adv-x="157" 
d="M275 670h130l-405 -670h-130z" />
    <glyph glyph-name="uni2070" unicode="&#x2070;" horiz-adv-x="389" 
d="M281 401q-74 0 -119 49.5t-45 126.5q0 88 56.5 162t146.5 74q74 0 118.5 -49t44.5 -126q0 -102 -59.5 -169.5t-142.5 -67.5zM288 509q36 0 55 42t19 86q0 31 -13 49.5t-35 18.5q-30 0 -52.5 -35t-22.5 -90q0 -33 12.5 -52t36.5 -19z" />
    <glyph glyph-name="uni2074" unicode="&#x2074;" horiz-adv-x="366" 
d="M276 471h-202l12 71l268 268h71l-45 -255h50l-15 -84h-50l-10 -57h-89zM291 555l16 93l-92 -93h76z" />
    <glyph glyph-name="uni2075" unicode="&#x2075;" horiz-adv-x="368" 
d="M263 401q-63 0 -106 26t-55 71l93 56q17 -50 66 -50q23 0 38.5 13t15.5 34q0 19 -16.5 29.5t-43.5 10.5q-22 0 -48 -19l-50 34l57 194h244l-16 -90h-157l-10 -38q9 4 20 4q65 0 103.5 -35.5t38.5 -89.5q0 -65 -51 -107.5t-123 -42.5z" />
    <glyph glyph-name="uni2076" unicode="&#x2076;" horiz-adv-x="354" 
d="M261 401q-74 0 -117.5 37.5t-43.5 98.5q0 85 74 162.5t189 111.5l37 -88q-86 -23 -136 -66q18 8 44 8q52 0 86.5 -35t34.5 -83q0 -64 -48.5 -105t-119.5 -41zM262 493q20 0 34 16.5t14 37.5q0 18 -12 28.5t-32 10.5q-21 0 -35 -13.5t-14 -36.5q0 -43 45 -43z" />
    <glyph glyph-name="uni2077" unicode="&#x2077;" horiz-adv-x="315" 
d="M308 698h-154l18 102h295l-12 -66l-200 -320h-125z" />
    <glyph glyph-name="uni2078" unicode="&#x2078;" horiz-adv-x="379" 
d="M281 401q-71 0 -116 33.5t-45 82.5q0 70 76 106q-35 32 -35 71q0 51 44 85t106 34q65 0 107.5 -31.5t42.5 -79.5q0 -64 -63 -95q43 -37 43 -83q0 -54 -46.5 -88.5t-113.5 -34.5zM281 489q17 0 32.5 12.5t15.5 33.5q0 18 -11.5 29t-31.5 11q-21 0 -36 -13t-15 -33
q0 -17 12.5 -28.5t33.5 -11.5zM309 655q14 0 25.5 10.5t11.5 27.5q0 32 -34 32q-17 0 -27.5 -11.5t-10.5 -28.5q0 -30 35 -30z" />
    <glyph glyph-name="uni2079" unicode="&#x2079;" horiz-adv-x="354" 
d="M172 491q82 22 130 64q-20 -6 -45 -6q-52 0 -86.5 35t-34.5 85q0 63 49.5 103.5t119.5 40.5q74 0 118 -37.5t44 -98.5q0 -84 -73.5 -163.5t-186.5 -110.5zM300 628q18 0 31 11.5t16 30.5q1 3 1 11q0 17 -11.5 28.5t-30.5 11.5q-21 0 -35.5 -15t-14.5 -38q0 -18 12 -29
t32 -11z" />
    <glyph glyph-name="uni2080" unicode="&#x2080;" horiz-adv-x="389" 
d="M191 -133q-74 0 -119 49.5t-45 126.5q0 88 56.5 162t146.5 74q74 0 118.5 -49t44.5 -126q0 -102 -59.5 -169.5t-142.5 -67.5zM198 -25q36 0 55 42t19 86q0 31 -13 49.5t-35 18.5q-30 0 -52.5 -35t-22.5 -90q0 -33 12.5 -52t36.5 -19z" />
    <glyph glyph-name="uni2081" unicode="&#x2081;" horiz-adv-x="324" 
d="M177 120l-94 -49l-36 89l204 116h61l-70 -396h-109z" />
    <glyph glyph-name="uni2082" unicode="&#x2082;" horiz-adv-x="391" 
d="M25 -61l139 102q54 36 72.5 55t18.5 39q0 36 -42 36q-40 0 -52 -50l-106 37q23 57 68 88.5t103 31.5q68 0 110.5 -35.5t42.5 -90.5q0 -40 -28.5 -71.5t-90.5 -70.5l-48 -32h140l-17 -98h-320z" />
    <glyph glyph-name="uni2083" unicode="&#x2083;" horiz-adv-x="378" 
d="M185 -133q-66 0 -110.5 26.5t-55.5 74.5l90 51q17 -49 70 -49q22 0 36.5 10.5t14.5 27.5q0 33 -54 38h-51l11 60l83 70h-127l16 90h270l-11 -61l-106 -95q41 -14 65 -43.5t24 -65.5q0 -59 -47.5 -96.5t-117.5 -37.5z" />
    <glyph glyph-name="uni2084" unicode="&#x2084;" horiz-adv-x="366" 
d="M186 -63h-202l12 71l268 268h71l-45 -255h50l-15 -84h-50l-10 -57h-89zM201 21l16 93l-92 -93h76z" />
    <glyph glyph-name="uni2085" unicode="&#x2085;" horiz-adv-x="368" 
d="M173 -133q-63 0 -106 26t-55 71l93 56q17 -50 66 -50q23 0 38.5 13t15.5 34q0 19 -16.5 29.5t-43.5 10.5q-22 0 -48 -19l-50 34l57 194h244l-16 -90h-157l-10 -38q9 4 20 4q65 0 103.5 -35.5t38.5 -89.5q0 -65 -51 -107.5t-123 -42.5z" />
    <glyph glyph-name="uni2086" unicode="&#x2086;" horiz-adv-x="354" 
d="M171 -133q-74 0 -117.5 37.5t-43.5 98.5q0 85 74 162.5t189 111.5l37 -88q-86 -23 -136 -66q18 8 44 8q52 0 86.5 -35t34.5 -83q0 -64 -48.5 -105t-119.5 -41zM172 -41q20 0 34 16.5t14 37.5q0 18 -12 28.5t-32 10.5q-21 0 -35 -13.5t-14 -36.5q0 -43 45 -43z" />
    <glyph glyph-name="uni2087" unicode="&#x2087;" horiz-adv-x="315" 
d="M218 164h-154l18 102h295l-12 -66l-200 -320h-125z" />
    <glyph glyph-name="uni2088" unicode="&#x2088;" horiz-adv-x="379" 
d="M191 -133q-71 0 -116 33.5t-45 82.5q0 70 76 106q-35 32 -35 71q0 51 44 85t106 34q65 0 107.5 -31.5t42.5 -79.5q0 -64 -63 -95q43 -37 43 -83q0 -54 -46.5 -88.5t-113.5 -34.5zM191 -45q17 0 32.5 12.5t15.5 33.5q0 18 -11.5 29t-31.5 11q-21 0 -36 -13t-15 -33
q0 -17 12.5 -28.5t33.5 -11.5zM219 121q14 0 25.5 10.5t11.5 27.5q0 32 -34 32q-17 0 -27.5 -11.5t-10.5 -28.5q0 -30 35 -30z" />
    <glyph glyph-name="uni2089" unicode="&#x2089;" horiz-adv-x="354" 
d="M82 -43q82 22 130 64q-20 -6 -45 -6q-52 0 -86.5 35t-34.5 85q0 63 49.5 103.5t119.5 40.5q74 0 118 -37.5t44 -98.5q0 -84 -73.5 -163.5t-186.5 -110.5zM210 94q18 0 31 11.5t16 30.5q1 3 1 11q0 17 -11.5 28.5t-30.5 11.5q-21 0 -35.5 -15t-14.5 -38q0 -18 12 -29
t32 -11z" />
    <glyph glyph-name="Euro" unicode="&#x20ac;" horiz-adv-x="610" 
d="M395 -14q-104 0 -175.5 66t-87.5 173h-83l15 86h64q2 27 5 40h-62l16 86h68q45 116 129 181.5t183 65.5q75 0 135.5 -37.5t96.5 -105.5l-121 -86q-44 87 -117 87q-47 0 -79.5 -28.5t-60.5 -76.5h171l-35 -86h-167q-5 -22 -5 -40h155l-34 -86h-110q27 -97 118 -97
q57 0 120 63l86 -103q-100 -102 -225 -102z" />
    <glyph glyph-name="uni20B4" unicode="&#x20b4;" horiz-adv-x="569" 
d="M306 -14q-93 0 -151.5 44.5t-58.5 109.5q0 16 5.5 36.5t11 33t7.5 14.5h-41l15 86h489l-15 -86h-289q-32 -25 -32 -58q0 -26 20 -41t53 -15q62 0 119 60l80 -93q-91 -91 -213 -91zM117 437h275q48 29 48 67q0 25 -19.5 40.5t-54.5 15.5q-61 0 -117 -59l-80 94
q89 89 209 89q94 0 153.5 -44.5t59.5 -109.5q0 -49 -32 -93h47l-16 -86h-489z" />
    <glyph glyph-name="uni20BD" unicode="&#x20bd;" horiz-adv-x="583" 
d="M107 87h-62l16 90h62l7 42h-62l24 136h62l56 315h203q80 0 145.5 -61t65.5 -144q0 -105 -78 -176t-185 -71h-24h-61l-7 -41h147l-16 -90h-147l-15 -87h-146zM371 355q46 0 75.5 26.5t29.5 72.5q0 33 -25.5 56t-61.5 23h-1h-57l-31 -178h71z" />
    <glyph glyph-name="uni2116" unicode="&#x2116;" horiz-adv-x="1142" 
d="M287 399l-70 -399h-142l120 682h72l301 -411l71 399h142l-121 -682h-72zM792 288h349l-19 -108h-349zM994 331q-73 0 -120 47t-47 115q0 79 58.5 135t136.5 56q67 0 118.5 -44.5t51.5 -114.5q0 -81 -59.5 -137.5t-138.5 -56.5zM1004 439q28 0 50 21.5t22 53.5
q0 25 -17 43.5t-43 18.5q-31 0 -52.5 -21.5t-21.5 -56.5q0 -26 17 -42.5t45 -16.5z" />
    <glyph glyph-name="trademark" unicode="&#x2122;" horiz-adv-x="705" 
d="M162 596h-87v85h271v-85h-87v-224h-97v224zM375 686h66l106 -149l107 149h66v-314h-97v133l-50 -73h-51l-50 73v-133h-97v314z" />
    <glyph glyph-name="arrowleft" unicode="&#x2190;" horiz-adv-x="1000" 
d="M440 50q-16 55 -34 95.5t-45 78t-67 57t-91 19.5h-3v100h3q51 0 91 19.5t67.5 57t45.5 78t33 95.5h150q-33 -166 -132 -232h442v-137l-442 1q99 -66 132 -232h-150z" />
    <glyph glyph-name="arrowup" unicode="&#x2191;" horiz-adv-x="1000" 
d="M482 442q-66 -99 -232 -132v150q55 16 95.5 34t78 45t57 67t19.5 91v3h100v-3q0 -51 19.5 -91t57 -67.5t78 -45.5t95.5 -33v-150q-166 33 -232 132v-442h-137z" />
    <glyph glyph-name="arrowright" unicode="&#x2192;" horiz-adv-x="1000" 
d="M510 50q33 166 132 232l-442 -1v137h442q-99 66 -132 232h150q15 -55 33 -95.5t45.5 -78t67.5 -57t91 -19.5h3v-100h-3q-51 0 -91 -19.5t-67 -57t-45 -78t-34 -95.5h-150z" />
    <glyph glyph-name="arrowdown" unicode="&#x2193;" horiz-adv-x="1000" 
d="M500 3q0 51 -19.5 91t-57 67t-78 45t-95.5 34v150q166 -33 232 -132l-1 442h137v-442q66 99 232 132v-150q-55 -15 -95.5 -33t-78 -45.5t-57 -67.5t-19.5 -91v-3h-100v3z" />
    <glyph glyph-name="uni2196" unicode="&#x2196;" horiz-adv-x="1000" 
d="M434 373q24 -114 -71 -257l-106 106q38 68 55.5 121t9 114t-55.5 109l-2 2l71 71l2 -2q47 -48 108.5 -56.5t114.5 9.5t121 56l106 -106q-143 -95 -257 -71l313 -312l-97 -97z" />
    <glyph glyph-name="uni2197" unicode="&#x2197;" horiz-adv-x="1000" 
d="M257 157l313 312q-114 -24 -257 71l106 106q50 -28 91 -44t86.5 -23t88 7.5t78.5 50.5l2 2l71 -71l-2 -2q-36 -36 -50.5 -78.5t-7.5 -88t23 -86.5t44 -91l-106 -106q-95 143 -71 257l-312 -313z" />
    <glyph glyph-name="uni2198" unicode="&#x2198;" horiz-adv-x="1000" 
d="M313 169q143 95 257 71l-313 312l97 97l312 -313q-24 114 71 257l106 -106q-38 -68 -56 -121t-9.5 -114.5t56.5 -108.5l2 -2l-71 -71l-2 2q-48 47 -109 55.5t-114 -9t-121 -55.5z" />
    <glyph glyph-name="uni2199" unicode="&#x2199;" horiz-adv-x="1000" 
d="M681 63q-50 28 -91 43.5t-87 23t-88 -7t-78 -50.5l-2 -2l-71 71l2 2q36 36 50.5 78t7 88t-23 87t-43.5 91l106 106q95 -143 71 -257l312 313l97 -97l-313 -312q114 24 257 -71z" />
    <glyph glyph-name="minus" unicode="&#x2212;" horiz-adv-x="455" 
d="M90 380h395v-110h-395v110z" />
    <glyph glyph-name="approxequal" unicode="&#x2248;" horiz-adv-x="455" 
d="M353 157q-34 0 -78 23q-45 23 -63 23q-17 0 -28.5 -9.5t-26.5 -34.5l-67 49q12 48 46 75t84 27q34 0 80 -25q43 -21 61 -21q30 0 56 44l68 -50q-14 -48 -48.5 -74.5t-83.5 -26.5zM353 339q-34 0 -78 23q-45 23 -63 23q-17 0 -28.5 -9.5t-26.5 -34.5l-67 49q12 48 46 75
t84 27q34 0 80 -25q43 -21 61 -21q30 0 56 44l68 -50q-14 -48 -48.5 -74.5t-83.5 -26.5z" />
    <glyph glyph-name="notequal" unicode="&#x2260;" horiz-adv-x="455" 
d="M154 177h-64v108h124l47 82h-171v108h231l44 78h100l-44 -78h64v-108h-124l-46 -82h170v-108h-231l-43 -80h-101z" />
    <glyph glyph-name="lessequal" unicode="&#x2264;" horiz-adv-x="455" 
d="M90 170h395v-109h-395v109zM90 346v92l344 166l46 -96l-247 -115l247 -112l-44 -96z" />
    <glyph glyph-name="greaterequal" unicode="&#x2265;" horiz-adv-x="455" 
d="M90 170h395v-109h-395v109zM95 281l247 112l-247 115l46 96l344 -166v-92l-346 -161z" />
    <glyph glyph-name="uniF6D1" unicode="&#xf6d1;" horiz-adv-x="329" 
d="M270 515q-66 0 -104.5 38t-38.5 102q0 10 1 17h104v-8q0 -55 46 -55q23 0 38 17t17 46h104q-6 -70 -52 -113.5t-115 -43.5z" />
    <glyph glyph-name="uniF6D4" unicode="&#xf6d4;" horiz-adv-x="324" 
d="M267 515q-64 0 -102 38t-38 102q0 10 1 17h104v-9q0 -54 43 -54q48 0 53 63h104q-6 -71 -51 -114t-114 -43z" />
    <glyph glyph-name="s_t" unicode="&#xfb06;" horiz-adv-x="867" 
d="M255 -14q-73 0 -133.5 27t-95.5 75l89 85q64 -80 147 -80q54 0 54 35q0 14 -19 25.5t-65 25.5q-135 41 -135 135q0 71 54 115.5t136 44.5q24 0 51 -5q-11 31 -11 74q0 91 66 150t163 59q95 0 154 -50.5t59 -125.5q0 -79 -46 -116h165l-19 -108h-127l-32 -180q-1 -2 -1 -6
q-1 -3 -1 -10q0 -52 55 -52q29 0 60 19l37 -93q-56 -43 -128 -43q-77 0 -119 38.5t-42 105.5q0 12 1 19l2 11l34 191h-71l19 108q35 6 56.5 32.5t21.5 66.5q0 34 -22 55.5t-58 21.5q-43 0 -71.5 -33.5t-28.5 -86.5q0 -57 42 -132l-83 -86q-66 69 -133 69q-44 0 -44 -32
q0 -14 17.5 -24.5t65.5 -26.5q136 -46 136 -139q0 -73 -56 -116t-144 -43z" />
    <glyph glyph-name="c_h" horiz-adv-x="1044" 
d="M300 -14q-103 0 -168.5 64t-65.5 158q0 109 80 187.5t187 78.5q28 0 50 -5q-6 16 -6 68q0 93 64.5 153.5t158.5 60.5q88 0 141 -49.5t53 -125.5q0 -11 -2 -21l-25 -138q49 58 119 57q73 -2 116.5 -48.5t43.5 -116.5q0 -8 -2 -24l-50 -285h-134l44 252l2 22q0 38 -20 58
t-56 20q-35 0 -59 -25.5t-32 -68.5l-44 -258h-134l98 556l1 5v8q0 30 -17.5 48t-47.5 18q-38 0 -64 -34t-26 -86q0 -58 47 -147l-115 -88q-40 68 -108 68q-52 0 -88.5 -38t-36.5 -95q0 -46 29.5 -74t79.5 -28q59 0 107 48l78 -97q-86 -78 -198 -78z" />
    <glyph glyph-name="c_k" horiz-adv-x="1002" 
d="M300 -14q-103 0 -168.5 64t-65.5 158q0 109 80 187.5t187 78.5q28 0 50 -5q-6 16 -6 68q0 93 64.5 153.5t158.5 60.5q88 0 141 -49.5t53 -125.5q0 -11 -2 -21l-53 -305l186 210h160l-209 -228l126 -232h-155l-114 220l-38 -220h-134l98 556l1 5v8q0 30 -17.5 48t-47.5 18
q-38 0 -64 -34t-26 -86q0 -58 47 -147l-115 -88q-40 68 -108 68q-52 0 -88.5 -38t-36.5 -95q0 -46 29.5 -74t79.5 -28q59 0 107 48l78 -97q-86 -78 -198 -78z" />
    <glyph glyph-name="c_t" horiz-adv-x="914" 
d="M300 -13q-103 0 -168.5 63.5t-65.5 157.5q0 109 80 187.5t187 78.5q25 0 53 -7q-12 34 -12 76q0 91 66 150t163 59q95 0 154 -50.5t59 -125.5q0 -86 -46 -116h165l-19 -108h-127l-32 -180q-1 -2 -1 -6q-1 -3 -1 -10q0 -52 55 -52q29 0 60 19l37 -93q-56 -43 -128 -43
q-77 0 -119 38.5t-42 105.5q0 12 1 19l2 11l34 191h-71l19 108q35 6 56.5 32.5t21.5 66.5q0 34 -22 55.5t-58 21.5q-43 0 -71.5 -33.5t-28.5 -86.5q0 -52 53 -146l-117 -90q-40 68 -108 68q-52 0 -88.5 -38t-36.5 -95q0 -46 29.5 -73.5t79.5 -27.5q60 0 107 47l78 -97
q-85 -77 -198 -77z" />
    <glyph glyph-name="s_p" horiz-adv-x="1039" 
d="M594 460q48 37 48 94q0 38 -23 60t-64 22t-69.5 -30t-28.5 -80q0 -80 39 -142l-83 -86q-66 69 -133 69q-44 0 -44 -32q0 -14 17.5 -24.5t65.5 -26.5q136 -46 136 -139q0 -73 -56 -116t-144 -43q-73 0 -133.5 27t-95.5 75l89 85q64 -80 147 -80q54 0 54 35q0 14 -19 25.5
t-65 25.5q-135 41 -135 135q0 71 54 115.5t136 44.5q22 0 49 -5q-8 26 -8 76q0 88 69 147.5t164 59.5q93 0 154 -51t61 -128q0 -62 -54 -116l-8 -47q20 26 57.5 45t78.5 19q88 0 142.5 -60.5t54.5 -151.5q0 -114 -74 -195t-174 -81q-92 0 -144 66l-53 -302h-134zM785 108
q51 0 88.5 42t37.5 96q0 46 -29.5 76t-76.5 30q-51 0 -88 -38.5t-37 -96.5q0 -46 29 -77.5t76 -31.5z" />
    <glyph glyph-name="I.alt" horiz-adv-x="432" 
d="M66 122h98l75 426h-98l22 122h342l-22 -122h-98l-75 -426h98l-21 -122h-342z" />
    <glyph glyph-name="a.alt" 
d="M262 -14q-86 0 -142 62t-56 153q0 112 74.5 192.5t172.5 80.5q103 0 153 -76l12 62h128l-81 -460h-128l7 41q-67 -55 -140 -55zM304 108q53 0 91 38.5t38 95.5q0 46 -29 78t-76 32q-51 0 -88.5 -40.5t-37.5 -97.5q0 -44 28 -75t74 -31z" />
    <glyph glyph-name="g.alt" 
d="M308 111q52 0 90.5 37.5t38.5 92.5q0 46 -29.5 78.5t-76.5 32.5q-50 0 -88 -39.5t-38 -96.5q0 -44 28 -74.5t75 -30.5zM252 -250q-71 0 -126.5 29t-85.5 79l105 86q33 -72 112 -72q51 0 85 31.5t44 85.5l8 45q-56 -45 -125 -45q-88 0 -145 61.5t-57 152.5
q0 112 74.5 191.5t174.5 79.5q98 0 151 -70l9 56h128l-86 -482q-18 -102 -91 -165t-175 -63z" />
    <glyph glyph-name="l.alt" horiz-adv-x="321" 
d="M233 -14q-72 0 -112 39.5t-40 106.5q0 14 1 21q0 7 1 11l97 546h134l-96 -544q-1 -7 -1 -16q0 -39 46 -39q33 0 49 11l36 -95q-53 -41 -115 -41z" />
    <glyph glyph-name="y.alt" horiz-adv-x="539" 
d="M215 -250q-68 0 -122 29t-84 79l105 87q32 -73 106 -73q48 0 82.5 31.5t44.5 84.5l9 50q-58 -52 -119 -52q-71 0 -114.5 47t-43.5 119q0 12 1 16q0 5 1 7l51 285h134l-45 -252q-2 -14 -2 -23q0 -37 20 -57t55 -20q34 0 59 29.5t34 73.5l44 249h134l-87 -488
q-18 -98 -92 -160t-171 -62z" />
    <glyph glyph-name="Igrave.alt" horiz-adv-x="432" 
d="M66 122h98l75 426h-98l22 122h342l-22 -122h-98l-75 -426h98l-21 -122h-342zM226 885l102 53l65 -180l-80 -40z" />
    <glyph glyph-name="Iacute.alt" horiz-adv-x="432" 
d="M66 122h98l75 426h-98l22 122h342l-22 -122h-98l-75 -426h98l-21 -122h-342zM296 758l129 180l92 -62l-147 -167z" />
    <glyph glyph-name="Icircumflex.alt" horiz-adv-x="432" 
d="M66 122h98l75 426h-98l22 122h342l-22 -122h-98l-75 -426h98l-21 -122h-342zM195 815l174 89l142 -89l-54 -83l-100 61l-135 -67z" />
    <glyph glyph-name="Idieresis.alt" horiz-adv-x="432" 
d="M67 122h98l75 426h-98l22 122h342l-22 -122h-98l-75 -426h98l-21 -122h-342zM243 741q-32 0 -52.5 21t-20.5 51q0 35 25.5 60t59.5 25q28 0 50.5 -19.5t22.5 -50.5q0 -36 -25.5 -61.5t-59.5 -25.5zM450 741q-32 0 -52.5 21t-20.5 51q0 35 25.5 60t59.5 25
q28 0 50.5 -19.5t22.5 -50.5q0 -36 -25.5 -61.5t-59.5 -25.5z" />
    <glyph glyph-name="agrave.alt" 
d="M262 -14q-86 0 -142 62t-56 153q0 112 74.5 192.5t172.5 80.5q103 0 153 -76l12 62h128l-81 -460h-128l7 41q-67 -55 -140 -55zM304 108q53 0 91 38.5t38 95.5q0 46 -29 78t-76 32q-51 0 -88.5 -40.5t-37.5 -97.5q0 -44 28 -75t74 -31zM244 675l102 53l65 -180l-80 -40z
" />
    <glyph glyph-name="aacute.alt" 
d="M262 -14q-86 0 -142 62t-56 153q0 112 74.5 192.5t172.5 80.5q103 0 153 -76l12 62h128l-81 -460h-128l7 41q-67 -55 -140 -55zM304 108q53 0 91 38.5t38 95.5q0 46 -29 78t-76 32q-51 0 -88.5 -40.5t-37.5 -97.5q0 -44 28 -75t74 -31zM314 548l129 180l92 -62l-147 -167
z" />
    <glyph glyph-name="acircumflex.alt" 
d="M262 -14q-86 0 -142 62t-56 153q0 112 74.5 192.5t172.5 80.5q103 0 153 -76l12 62h128l-81 -460h-128l7 41q-67 -55 -140 -55zM304 108q53 0 91 38.5t38 95.5q0 46 -29 78t-76 32q-51 0 -88.5 -40.5t-37.5 -97.5q0 -44 28 -75t74 -31zM221 605l174 89l142 -89l-54 -83
l-100 61l-135 -67z" />
    <glyph glyph-name="atilde.alt" 
d="M262 -14q-86 0 -142 62t-56 153q0 112 74.5 192.5t172.5 80.5q103 0 153 -76l12 62h128l-81 -460h-128l7 41q-67 -55 -140 -55zM304 108q53 0 91 38.5t38 95.5q0 46 -29 78t-76 32q-51 0 -88.5 -40.5t-37.5 -97.5q0 -44 28 -75t74 -31zM216 593q17 39 48 62.5t64 23.5
q23 0 55 -17t47 -17q23 0 51 34l58 -55q-17 -39 -47 -62t-63 -23q-21 0 -54 17t-55 17t-45 -34z" />
    <glyph glyph-name="adieresis.alt" 
d="M262 -14q-86 0 -142 62t-56 153q0 112 74.5 192.5t172.5 80.5q103 0 153 -76l12 62h128l-81 -460h-128l7 41q-67 -55 -140 -55zM304 108q53 0 91 38.5t38 95.5q0 46 -29 78t-76 32q-51 0 -88.5 -40.5t-37.5 -97.5q0 -44 28 -75t74 -31zM270 531q-32 0 -52.5 21t-20.5 51
q0 35 25.5 60t59.5 25q28 0 50.5 -19.5t22.5 -50.5q0 -36 -25.5 -61.5t-59.5 -25.5zM477 531q-32 0 -52.5 21t-20.5 51q0 35 25.5 60t59.5 25q28 0 50.5 -19.5t22.5 -50.5q0 -36 -25.5 -61.5t-59.5 -25.5z" />
    <glyph glyph-name="aring.alt" 
d="M262 -14q-86 0 -142 62t-56 153q0 112 74.5 192.5t172.5 80.5q103 0 153 -76l12 62h128l-81 -460h-128l7 41q-67 -55 -140 -55zM304 108q53 0 91 38.5t38 95.5q0 46 -29 78t-76 32q-51 0 -88.5 -40.5t-37.5 -97.5q0 -44 28 -75t74 -31zM374 492q-47 0 -83 30t-36 78
q0 51 39.5 86.5t93.5 35.5q47 0 83 -30t36 -78q0 -51 -39.5 -86.5t-93.5 -35.5zM379 570q20 0 33 11t13 28q0 15 -11.5 25t-30.5 10q-20 0 -33 -11t-13 -28q0 -15 11.5 -25t30.5 -10z" />
    <glyph glyph-name="yacute.alt" horiz-adv-x="539" 
d="M215 -250q-68 0 -122 29t-84 79l105 87q32 -73 106 -73q48 0 82.5 31.5t44.5 84.5l9 50q-58 -52 -119 -52q-71 0 -114.5 47t-43.5 119q0 12 1 16q0 5 1 7l51 285h134l-45 -252q-2 -14 -2 -23q0 -37 20 -57t55 -20q34 0 59 29.5t34 73.5l44 249h134l-87 -488
q-18 -98 -92 -160t-171 -62zM307 548l129 180l92 -62l-147 -167z" />
    <glyph glyph-name="ydieresis.alt" horiz-adv-x="539" 
d="M215 -250q-68 0 -122 29t-84 79l105 87q32 -73 106 -73q48 0 82.5 31.5t44.5 84.5l9 50q-58 -52 -119 -52q-71 0 -114.5 47t-43.5 119q0 12 1 16q0 5 1 7l51 285h134l-45 -252q-2 -14 -2 -23q0 -37 20 -57t55 -20q34 0 59 29.5t34 73.5l44 249h134l-87 -488
q-18 -98 -92 -160t-171 -62zM258 531q-32 0 -52.5 21t-20.5 51q0 35 25.5 60t59.5 25q28 0 50.5 -19.5t22.5 -50.5q0 -36 -25.5 -61.5t-59.5 -25.5zM465 531q-32 0 -52.5 21t-20.5 51q0 35 25.5 60t59.5 25q28 0 50.5 -19.5t22.5 -50.5q0 -36 -25.5 -61.5t-59.5 -25.5z" />
    <glyph glyph-name="amacron.alt" 
d="M262 -14q-86 0 -142 62t-56 153q0 112 74.5 192.5t172.5 80.5q103 0 153 -76l12 62h128l-81 -460h-128l7 41q-67 -55 -140 -55zM304 108q53 0 91 38.5t38 95.5q0 46 -29 78t-76 32q-51 0 -88.5 -40.5t-37.5 -97.5q0 -44 28 -75t74 -31zM272 654h241l-17 -97h-241z" />
    <glyph glyph-name="abreve.alt" 
d="M262 -14q-86 0 -142 62t-56 153q0 112 74.5 192.5t172.5 80.5q103 0 153 -76l12 62h128l-81 -460h-128l7 41q-67 -55 -140 -55zM304 108q53 0 91 38.5t38 95.5q0 46 -29 78t-76 32q-51 0 -88.5 -40.5t-37.5 -97.5q0 -44 28 -75t74 -31zM372 516q-63 0 -101 37.5
t-38 100.5q0 11 1 18h98v-7q0 -24 13 -38t35 -14q24 0 40.5 16t18.5 43h98q-6 -71 -51 -113.5t-114 -42.5z" />
    <glyph glyph-name="aogonek.alt" 
d="M304 108q53 0 91 38.5t38 95.5q0 46 -29 78t-76 32q-51 0 -88.5 -40.5t-37.5 -97.5q0 -44 28 -75t74 -31zM414 -265q-65 0 -103 30t-38 78q0 92 134 157h-12l7 41q-67 -55 -140 -55q-86 0 -142 62t-56 153q0 112 74.5 192.5t172.5 80.5q103 0 153 -76l12 62h128l-81 -460
q-124 -64 -124 -121q0 -39 56 -39q13 0 28 4l-18 -104q-32 -5 -51 -5z" />
    <glyph glyph-name="gcircumflex.alt" 
d="M308 111q52 0 90.5 37.5t38.5 92.5q0 46 -29.5 78.5t-76.5 32.5q-50 0 -88 -39.5t-38 -96.5q0 -44 28 -74.5t75 -30.5zM252 -250q-71 0 -126.5 29t-85.5 79l105 86q33 -72 112 -72q51 0 85 31.5t44 85.5l8 45q-56 -45 -125 -45q-88 0 -145 61.5t-57 152.5
q0 112 74.5 191.5t174.5 79.5q98 0 151 -70l9 56h128l-86 -482q-18 -102 -91 -165t-175 -63zM221 605l174 89l142 -89l-54 -83l-100 61l-135 -67z" />
    <glyph glyph-name="gbreve.alt" 
d="M308 111q52 0 90.5 37.5t38.5 92.5q0 46 -29.5 78.5t-76.5 32.5q-50 0 -88 -39.5t-38 -96.5q0 -44 28 -74.5t75 -30.5zM252 -250q-71 0 -126.5 29t-85.5 79l105 86q33 -72 112 -72q51 0 85 31.5t44 85.5l8 45q-56 -45 -125 -45q-88 0 -145 61.5t-57 152.5
q0 112 74.5 191.5t174.5 79.5q98 0 151 -70l9 56h128l-86 -482q-18 -102 -91 -165t-175 -63zM373 516q-63 0 -101 37.5t-38 100.5q0 11 1 18h98v-7q0 -24 13 -38t35 -14q24 0 40.5 16t18.5 43h98q-6 -71 -51 -113.5t-114 -42.5z" />
    <glyph glyph-name="gdotaccent.alt" 
d="M308 111q52 0 90.5 37.5t38.5 92.5q0 46 -29.5 78.5t-76.5 32.5q-50 0 -88 -39.5t-38 -96.5q0 -44 28 -74.5t75 -30.5zM252 -250q-71 0 -126.5 29t-85.5 79l105 86q33 -72 112 -72q51 0 85 31.5t44 85.5l8 45q-56 -45 -125 -45q-88 0 -145 61.5t-57 152.5
q0 112 74.5 191.5t174.5 79.5q98 0 151 -70l9 56h128l-86 -482q-18 -102 -91 -165t-175 -63zM373 531q-32 0 -52.5 21t-20.5 51q0 35 25.5 60t59.5 25q28 0 50.5 -19.5t22.5 -50.5q0 -36 -25.5 -61.5t-59.5 -25.5z" />
    <glyph glyph-name="gcommaaccent.alt" 
d="M308 111q52 0 90.5 37.5t38.5 92.5q0 46 -29.5 78.5t-76.5 32.5q-50 0 -88 -39.5t-38 -96.5q0 -44 28 -74.5t75 -30.5zM252 -250q-71 0 -126.5 29t-85.5 79l105 86q33 -72 112 -72q51 0 85 31.5t44 85.5l8 45q-56 -45 -125 -45q-88 0 -145 61.5t-57 152.5
q0 112 74.5 191.5t174.5 79.5q98 0 151 -70l9 56h128l-86 -482q-18 -102 -91 -165t-175 -63zM310 543l109 218l80 -24l-85 -223z" />
    <glyph glyph-name="Imacron.alt" horiz-adv-x="432" 
d="M66 122h98l75 426h-98l22 122h342l-22 -122h-98l-75 -426h98l-21 -122h-342zM240 864h241l-17 -97h-241z" />
    <glyph glyph-name="Ibreve.alt" horiz-adv-x="432" 
d="M66 122h98l75 426h-98l22 122h342l-22 -122h-98l-75 -426h98l-21 -122h-342zM340 726q-63 0 -101 37.5t-38 100.5q0 11 1 18h98v-7q0 -24 13 -38t35 -14q24 0 40.5 16t18.5 43h98q-6 -71 -51 -113.5t-114 -42.5z" />
    <glyph glyph-name="Iogonek.alt" horiz-adv-x="432" 
d="M278 -265q-65 0 -103 30t-38 78q0 96 124 157h-216l21 122h98l75 426h-98l22 122h342l-22 -122h-98l-75 -426h98l-21 -122q-124 -64 -124 -121q0 -39 56 -39q13 0 28 4l-18 -104q-32 -5 -51 -5z" />
    <glyph glyph-name="Idotaccent.alt" horiz-adv-x="432" 
d="M66 122h98l75 426h-98l22 122h342l-22 -122h-98l-75 -426h98l-21 -122h-342zM345 741q-32 0 -52.5 21t-20.5 51q0 35 25.5 60t59.5 25q28 0 50.5 -19.5t22.5 -50.5q0 -36 -25.5 -61.5t-59.5 -25.5z" />
    <glyph glyph-name="lacute.alt" horiz-adv-x="321" 
d="M233 -14q-72 0 -112 39.5t-40 106.5q0 14 1 21q0 7 1 11l97 546h134l-96 -544q-1 -7 -1 -16q0 -39 46 -39q33 0 49 11l36 -95q-53 -41 -115 -41zM212 789l129 180l92 -62l-147 -167z" />
    <glyph glyph-name="lcommaaccent.alt" horiz-adv-x="321" 
d="M233 -14q-72 0 -112 39.5t-40 106.5q0 14 1 21q0 7 1 11l97 546h134l-96 -544q-1 -7 -1 -16q0 -39 46 -39q33 0 49 11l36 -95q-53 -41 -115 -41zM63 -265l85 223l104 -29l-109 -218z" />
    <glyph glyph-name="lcaron.alt" horiz-adv-x="369" 
d="M233 -14q-72 0 -112 39.5t-40 106.5q0 14 1 21q0 7 1 11l97 546h134l-96 -544q-1 -7 -1 -16q0 -39 46 -39q33 0 49 11l36 -95q-53 -41 -115 -41zM319 521l71 206l105 -25l-93 -199z" />
    <glyph glyph-name="ldot.alt" horiz-adv-x="404" 
d="M379 306q-32 0 -53 21.5t-21 52.5q0 35 27 61.5t61 26.5q30 0 53 -20.5t23 -53.5q0 -37 -27 -62.5t-63 -25.5zM233 -14q-72 0 -112 39.5t-40 106.5q0 14 1 21q0 7 1 11l97 546h134l-96 -544q-1 -7 -1 -16q0 -39 46 -39q33 0 49 11l36 -95q-53 -41 -115 -41z" />
    <glyph glyph-name="lslash.alt" horiz-adv-x="337" 
d="M248 -14q-72 0 -112 39.5t-40 106.5q0 14 1 21q0 7 1 11l21 118l-77 -40l20 111l76 40l57 317h134l-43 -240l101 52l-20 -111l-100 -52l-34 -193q-1 -7 -1 -16q0 -39 46 -39q33 0 49 11l36 -95q-53 -41 -115 -41z" />
    <glyph glyph-name="ycircumflex.alt" horiz-adv-x="539" 
d="M215 -250q-68 0 -122 29t-84 79l105 87q32 -73 106 -73q48 0 82.5 31.5t44.5 84.5l9 50q-58 -52 -119 -52q-71 0 -114.5 47t-43.5 119q0 12 1 16q0 5 1 7l51 285h134l-45 -252q-2 -14 -2 -23q0 -37 20 -57t55 -20q34 0 59 29.5t34 73.5l44 249h134l-87 -488
q-18 -98 -92 -160t-171 -62zM207 605l174 89l142 -89l-54 -83l-100 61l-135 -67z" />
    <glyph glyph-name="aringacute.alt" 
d="M262 -14q-86 0 -142 62t-56 153q0 112 74.5 192.5t172.5 80.5q103 0 153 -76l12 62h128l-81 -460h-128l7 41q-67 -55 -140 -55zM304 108q53 0 91 38.5t38 95.5q0 46 -29 78t-76 32q-51 0 -88.5 -40.5t-37.5 -97.5q0 -44 28 -75t74 -31zM381 492q-47 0 -83 30t-36 78
q0 51 39.5 86.5t93.5 35.5q47 0 83 -30t36 -78q0 -51 -39.5 -86.5t-93.5 -35.5zM386 570q20 0 33 11t13 28q0 15 -11.5 25t-30.5 10q-20 0 -33 -11t-13 -28q0 -15 11.5 -25t30.5 -10zM356 809l190 114l41 -97l-197 -92z" />
    <glyph glyph-name="uni0233.alt" horiz-adv-x="539" 
d="M215 -250q-68 0 -122 29t-84 79l105 87q32 -73 106 -73q48 0 82.5 31.5t44.5 84.5l9 50q-58 -52 -119 -52q-71 0 -114.5 47t-43.5 119q0 12 1 16q0 5 1 7l51 285h134l-45 -252q-2 -14 -2 -23q0 -37 20 -57t55 -20q34 0 59 29.5t34 73.5l44 249h134l-87 -488
q-18 -98 -92 -160t-171 -62zM252 654h241l-17 -97h-241z" />
    <glyph glyph-name="uni0406.alt" horiz-adv-x="432" 
d="M66 122h98l75 426h-98l22 122h342l-22 -122h-98l-75 -426h98l-21 -122h-342z" />
    <glyph glyph-name="uni0407.alt" horiz-adv-x="432" 
d="M67 122h98l75 426h-98l22 122h342l-22 -122h-98l-75 -426h98l-21 -122h-342zM243 741q-32 0 -52.5 21t-20.5 51q0 35 25.5 60t59.5 25q28 0 50.5 -19.5t22.5 -50.5q0 -36 -25.5 -61.5t-59.5 -25.5zM450 741q-32 0 -52.5 21t-20.5 51q0 35 25.5 60t59.5 25
q28 0 50.5 -19.5t22.5 -50.5q0 -36 -25.5 -61.5t-59.5 -25.5z" />
    <glyph glyph-name="uni0430.alt" 
d="M262 -14q-86 0 -142 62t-56 153q0 112 74.5 192.5t172.5 80.5q103 0 153 -76l12 62h128l-81 -460h-128l7 41q-67 -55 -140 -55zM304 108q53 0 91 38.5t38 95.5q0 46 -29 78t-76 32q-51 0 -88.5 -40.5t-37.5 -97.5q0 -44 28 -75t74 -31z" />
    <glyph glyph-name="uni0443.alt" horiz-adv-x="539" 
d="M215 -250q-68 0 -122 29t-84 79l105 87q32 -73 106 -73q48 0 82.5 31.5t44.5 84.5l9 50q-58 -52 -119 -52q-71 0 -114.5 47t-43.5 119q0 12 1 16q0 5 1 7l51 285h134l-45 -252q-2 -14 -2 -23q0 -37 20 -57t55 -20q34 0 59 29.5t34 73.5l44 249h134l-87 -488
q-18 -98 -92 -160t-171 -62z" />
    <glyph glyph-name="uni045E.alt" horiz-adv-x="539" 
d="M215 -250q-68 0 -122 29t-84 79l105 87q32 -73 106 -73q48 0 82.5 31.5t44.5 84.5l9 50q-58 -52 -119 -52q-71 0 -114.5 47t-43.5 119q0 12 1 16q0 5 1 7l51 285h134l-45 -252q-2 -14 -2 -23q0 -37 20 -57t55 -20q34 0 59 29.5t34 73.5l44 249h134l-87 -488
q-18 -98 -92 -160t-171 -62zM352 515q-64 0 -102 38t-38 102q0 10 1 17h104v-9q0 -54 43 -54q48 0 53 63h104q-6 -71 -51 -114t-114 -43z" />
    <glyph glyph-name="ygrave.alt" horiz-adv-x="539" 
d="M215 -250q-68 0 -122 29t-84 79l105 87q32 -73 106 -73q48 0 82.5 31.5t44.5 84.5l9 50q-58 -52 -119 -52q-71 0 -114.5 47t-43.5 119q0 12 1 16q0 5 1 7l51 285h134l-45 -252q-2 -14 -2 -23q0 -37 20 -57t55 -20q34 0 59 29.5t34 73.5l44 249h134l-87 -488
q-18 -98 -92 -160t-171 -62zM240 675l102 53l65 -180l-80 -40z" />
    <glyph glyph-name="fl.alt" horiz-adv-x="647" 
d="M561 -14q-73 0 -113.5 39.5t-40.5 106.5q0 18 5 45l57 325q0 4 1 6q0 1 0.5 4.5t0.5 4.5q0 33 -19.5 54.5t-52.5 21.5q-32 0 -56 -23t-30 -60l-8 -50h99l-19 -108h-99l-62 -352h-134l62 352h-70l19 108h70l9 59q16 87 78 139t148 52q90 0 144 -52t54 -134q0 -9 -2 -25
l-58 -332q-1 -7 -1 -16q0 -22 12 -31t37 -9q24 0 46 14l36 -99q-52 -40 -113 -40z" />
    <glyph glyph-name="ffl.alt" horiz-adv-x="948" 
d="M862 -14q-73 0 -113.5 39.5t-40.5 106.5q0 18 5 45l57 325q0 4 1 6q0 1 0.5 4.5t0.5 4.5q0 33 -19.5 54.5t-52.5 21.5q-32 0 -56 -23t-30 -60l-8 -50h99l-19 -108h-99l-62 -352h-134l62 352h-167l-62 -352h-134l62 352h-70l19 108h70l14 82q14 78 63 123t121 45
q91 0 147 -64l-83 -86q-23 33 -58 33q-48 0 -58 -64l-12 -69h167l9 59q16 87 78 139t148 52q90 0 144 -52t54 -134q0 -9 -2 -25l-58 -332q-1 -7 -1 -16q0 -22 12 -31t37 -9q24 0 46 14l36 -99q-52 -40 -113 -40z" />
    <glyph glyph-name="parenleft.case" horiz-adv-x="389" 
d="M247 -165q-67 75 -103 176.5t-36 213.5q0 172 84.5 334.5t225.5 255.5l76 -80q-115 -84 -183 -223t-68 -288q0 -189 106 -323z" />
    <glyph glyph-name="parenright.case" horiz-adv-x="389" 
d="M1 -85q115 84 183 223t68 288q0 189 -106 323l102 66q67 -75 103 -176.5t36 -213.5q0 -172 -84.5 -334t-225.5 -256z" />
    <glyph glyph-name="hyphen.case" horiz-adv-x="315" 
d="M116 392h235l-22 -124h-235z" />
    <glyph glyph-name="colon.case" horiz-adv-x="282" 
d="M157 61q-33 0 -54.5 21t-21.5 52q0 37 26.5 63.5t61.5 26.5q30 0 52.5 -21t22.5 -53q0 -38 -25.5 -63.5t-61.5 -25.5zM210 376q-33 0 -54 21.5t-21 52.5q0 34 25.5 61.5t63.5 27.5q33 0 54 -21.5t21 -52.5q0 -36 -26 -62.5t-63 -26.5z" />
    <glyph glyph-name="at.case" horiz-adv-x="989" 
d="M378 -117q-124 40 -199.5 144t-75.5 235t67 241t178 172t240 62q180 0 296 -106t116 -259q0 -125 -65 -195t-158 -70q-111 0 -141 67q-59 -67 -140 -67q-71 0 -117 50t-46 120q0 87 60 149.5t140 62.5q70 0 117 -53l9 49h110l-34 -189q-16 -88 49 -88q41 0 68 37t27 116
q0 116 -83 195.5t-215 79.5q-148 0 -253.5 -107.5t-105.5 -261.5q0 -99 56.5 -179t149.5 -107zM532 208q38 0 66 29.5t28 68.5q0 34 -22 58t-57 24q-37 0 -66 -30t-29 -71q0 -35 22 -57t58 -22z" />
    <glyph glyph-name="bracketleft.case" horiz-adv-x="359" 
d="M220 780h244l-22 -121h-114l-119 -678h114l-22 -121h-244z" />
    <glyph glyph-name="bracketright.case" horiz-adv-x="359" 
d="M24 -19h114l119 678h-114l22 121h244l-163 -920h-243z" />
    <glyph glyph-name="braceleft.case" horiz-adv-x="369" 
d="M275 -140q-69 0 -113 41.5t-44 108.5q0 23 2 33l25 143v4q0 2 0.5 4t0.5 4q0 28 -16 44.5t-47 16.5h-5l21 122h5h11q30 0 50.5 17.5t25.5 46.5l28 167q29 168 191 168h28h36l-22 -121h-35h-6q-23 0 -40.5 -16t-22.5 -41l-27 -159q-20 -109 -92 -121l-1 -4q51 -20 51 -92
q0 -20 -5 -40l-23 -140q-1 -1 -1 -5v-8q0 -48 46 -52h37l-22 -121h-36z" />
    <glyph glyph-name="braceright.case" horiz-adv-x="369" 
d="M24 -19h35h6q23 0 40.5 16t22.5 41l27 159q20 109 92 121l1 4q-51 20 -51 92q0 20 5 40l23 140v5q0 1 0.5 4t0.5 4q0 48 -46 52h-37l22 121h36q69 0 113 -41.5t44 -108.5q0 -23 -2 -33l-25 -143q-1 -2 -1 -5v-7q0 -28 16 -44.5t47 -16.5h5l-21 -122h-5h-11
q-30 0 -50.5 -17.5t-25.5 -46.5l-28 -167q-29 -168 -191 -168h-28h-36z" />
    <glyph glyph-name="exclamdown.case" horiz-adv-x="282" 
d="M172 458h104l-63 -457h-141zM243 517q-30 0 -52.5 21t-22.5 53q0 38 25.5 63.5t61.5 25.5q33 0 54.5 -21t21.5 -52q0 -37 -26.5 -63.5t-61.5 -26.5z" />
    <glyph glyph-name="guillemotleft.case" horiz-adv-x="509" 
d="M84 320l176 205l83 -63l-131 -151l70 -139l-95 -57zM286 320l176 205l83 -63l-131 -151l70 -139l-95 -57z" />
    <glyph glyph-name="periodcentered.case" horiz-adv-x="220" 
d="M166 248q-32 0 -53 21.5t-21 52.5q0 35 27 61.5t61 26.5q30 0 53 -20.5t23 -53.5q0 -37 -27 -62.5t-63 -25.5z" />
    <glyph glyph-name="guillemotright.case" horiz-adv-x="509" 
d="M73 178l131 151l-70 139l95 57l103 -205l-176 -205zM275 178l131 151l-70 139l95 57l103 -205l-176 -205z" />
    <glyph glyph-name="questiondown.case" horiz-adv-x="469" 
d="M272 -14q-89 0 -143.5 42.5t-54.5 108.5q0 49 26.5 83.5t89.5 68.5q51 29 65 41t14 28q0 21 -40 36l66 94q125 -33 125 -118q0 -43 -28.5 -75t-96.5 -71q-39 -22 -56 -38.5t-17 -33.5q0 -22 19.5 -35t53.5 -13q59 0 115 51l62 -91q-91 -78 -200 -78zM357 516
q-30 0 -52.5 21t-22.5 53q0 38 25.5 63.5t61.5 25.5q33 0 54.5 -21t21.5 -52q0 -37 -26.5 -63.5t-61.5 -26.5z" />
    <glyph glyph-name="endash.case" horiz-adv-x="495" 
d="M85 384h455l-19 -108h-455z" />
    <glyph glyph-name="emdash.case" horiz-adv-x="715" 
d="M85 384h675l-19 -108h-675z" />
    <glyph glyph-name="bullet.case" horiz-adv-x="391" 
d="M243 233q-39 0 -64.5 26.5t-25.5 62.5q0 42 32.5 72.5t73.5 30.5q34 0 60.5 -25t26.5 -61q0 -44 -31 -75t-72 -31z" />
    <glyph glyph-name="guilsinglleft.case" horiz-adv-x="338" 
d="M74 320l237 207l69 -79l-158 -138l101 -127l-85 -70z" />
    <glyph glyph-name="guilsinglright.case" horiz-adv-x="338" 
d="M64 192l158 138l-101 127l85 70l164 -207l-237 -207z" />
    <glyph glyph-name="zero.dnom" horiz-adv-x="389" 
d="M207 -13q-74 0 -119 49.5t-45 126.5q0 88 56.5 162t146.5 74q74 0 118.5 -49t44.5 -126q0 -102 -59.5 -169.5t-142.5 -67.5zM214 95q36 0 55 42t19 86q0 31 -13 49.5t-35 18.5q-30 0 -52.5 -35t-22.5 -90q0 -33 12.5 -52t36.5 -19z" />
    <glyph glyph-name="one.dnom" horiz-adv-x="324" 
d="M193 240l-94 -49l-36 89l204 116h61l-70 -396h-109z" />
    <glyph glyph-name="two.dnom" horiz-adv-x="391" 
d="M41 59l139 102q54 36 72.5 55t18.5 39q0 36 -42 36q-40 0 -52 -50l-106 37q23 57 68 88.5t103 31.5q68 0 110.5 -35.5t42.5 -90.5q0 -40 -28.5 -71.5t-90.5 -70.5l-48 -32h140l-17 -98h-320z" />
    <glyph glyph-name="three.dnom" horiz-adv-x="378" 
d="M201 -13q-66 0 -110.5 26.5t-55.5 74.5l90 51q17 -49 70 -49q22 0 36.5 10.5t14.5 27.5q0 33 -54 38h-51l11 60l83 70h-127l16 90h270l-11 -61l-106 -95q41 -14 65 -43.5t24 -65.5q0 -59 -47.5 -96.5t-117.5 -37.5z" />
    <glyph glyph-name="four.dnom" horiz-adv-x="366" 
d="M202 57h-202l12 71l268 268h71l-45 -255h50l-15 -84h-50l-10 -57h-89zM217 141l16 93l-92 -93h76z" />
    <glyph glyph-name="five.dnom" horiz-adv-x="368" 
d="M189 -13q-63 0 -106 26t-55 71l93 56q17 -50 66 -50q23 0 38.5 13t15.5 34q0 19 -16.5 29.5t-43.5 10.5q-22 0 -48 -19l-50 34l57 194h244l-16 -90h-157l-10 -38q9 4 20 4q65 0 103.5 -35.5t38.5 -89.5q0 -65 -51 -107.5t-123 -42.5z" />
    <glyph glyph-name="six.dnom" horiz-adv-x="354" 
d="M187 -13q-74 0 -117.5 37.5t-43.5 98.5q0 85 74 162.5t189 111.5l37 -88q-86 -23 -136 -66q18 8 44 8q52 0 86.5 -35t34.5 -83q0 -64 -48.5 -105t-119.5 -41zM188 79q20 0 34 16.5t14 37.5q0 18 -12 28.5t-32 10.5q-21 0 -35 -13.5t-14 -36.5q0 -43 45 -43z" />
    <glyph glyph-name="seven.dnom" horiz-adv-x="315" 
d="M234 284h-154l18 102h295l-12 -66l-200 -320h-125z" />
    <glyph glyph-name="eight.dnom" horiz-adv-x="379" 
d="M207 -13q-71 0 -116 33.5t-45 82.5q0 70 76 106q-35 32 -35 71q0 51 44 85t106 34q65 0 107.5 -31.5t42.5 -79.5q0 -64 -63 -95q43 -37 43 -83q0 -54 -46.5 -88.5t-113.5 -34.5zM207 75q17 0 32.5 12.5t15.5 33.5q0 18 -11.5 29t-31.5 11q-21 0 -36 -13t-15 -33
q0 -17 12.5 -28.5t33.5 -11.5zM235 241q14 0 25.5 10.5t11.5 27.5q0 32 -34 32q-17 0 -27.5 -11.5t-10.5 -28.5q0 -30 35 -30z" />
    <glyph glyph-name="nine.dnom" horiz-adv-x="354" 
d="M98 77q82 22 130 64q-20 -6 -45 -6q-52 0 -86.5 35t-34.5 85q0 63 49.5 103.5t119.5 40.5q74 0 118 -37.5t44 -98.5q0 -84 -73.5 -163.5t-186.5 -110.5zM226 214q18 0 31 11.5t16 30.5q1 3 1 11q0 17 -11.5 28.5t-30.5 11.5q-21 0 -35.5 -15t-14.5 -38q0 -18 12 -29
t32 -11z" />
    <glyph glyph-name="Iacute_J.loclNLD" horiz-adv-x="784" 
d="M193 670h146l-118 -670h-146zM503 -14q-74 0 -124.5 33t-68.5 91l121 79q22 -66 79 -66q40 0 63.5 25.5t30.5 66.5l56 318h-172l25 137h318l-82 -467q-18 -101 -85 -159t-161 -58zM240 758l129 180l92 -62l-147 -167zM635 758l129 180l92 -62l-147 -167z" />
    <glyph glyph-name="iacute_j.loclNLD" horiz-adv-x="490" 
d="M136 460h134l-81 -460h-134zM243 -250q-62 0 -105 37l67 108q18 -20 34 -20q37 0 48 49l95 536h134l-98 -551q-13 -74 -60 -116.5t-115 -42.5zM174 548l129 180l92 -62l-147 -167zM418 548l129 180l92 -62l-147 -167z" />
    <glyph glyph-name="zero.numr" horiz-adv-x="389" 
d="M256 271q-74 0 -119 49.5t-45 126.5q0 88 56.5 162t146.5 74q74 0 118.5 -49t44.5 -126q0 -102 -59.5 -169.5t-142.5 -67.5zM263 379q36 0 55 42t19 86q0 31 -13 49.5t-35 18.5q-30 0 -52.5 -35t-22.5 -90q0 -33 12.5 -52t36.5 -19z" />
    <glyph glyph-name="one.numr" horiz-adv-x="324" 
d="M242 524l-94 -49l-36 89l204 116h61l-70 -396h-109z" />
    <glyph glyph-name="two.numr" horiz-adv-x="391" 
d="M90 343l139 102q54 36 72.5 55t18.5 39q0 36 -42 36q-40 0 -52 -50l-106 37q23 57 68 88.5t103 31.5q68 0 110.5 -35.5t42.5 -90.5q0 -40 -28.5 -71.5t-90.5 -70.5l-48 -32h140l-17 -98h-320z" />
    <glyph glyph-name="three.numr" horiz-adv-x="378" 
d="M250 271q-66 0 -110.5 26.5t-55.5 74.5l90 51q17 -49 70 -49q22 0 36.5 10.5t14.5 27.5q0 33 -54 38h-51l11 60l83 70h-127l16 90h270l-11 -61l-106 -95q41 -14 65 -43.5t24 -65.5q0 -59 -47.5 -96.5t-117.5 -37.5z" />
    <glyph glyph-name="four.numr" horiz-adv-x="366" 
d="M251 341h-202l12 71l268 268h71l-45 -255h50l-15 -84h-50l-10 -57h-89zM266 425l16 93l-92 -93h76z" />
    <glyph glyph-name="five.numr" horiz-adv-x="368" 
d="M238 271q-63 0 -106 26t-55 71l93 56q17 -50 66 -50q23 0 38.5 13t15.5 34q0 19 -16.5 29.5t-43.5 10.5q-22 0 -48 -19l-50 34l57 194h244l-16 -90h-157l-10 -38q9 4 20 4q65 0 103.5 -35.5t38.5 -89.5q0 -65 -51 -107.5t-123 -42.5z" />
    <glyph glyph-name="six.numr" horiz-adv-x="354" 
d="M236 271q-74 0 -117.5 37.5t-43.5 98.5q0 85 74 162.5t189 111.5l37 -88q-86 -23 -136 -66q18 8 44 8q52 0 86.5 -35t34.5 -83q0 -64 -48.5 -105t-119.5 -41zM237 363q20 0 34 16.5t14 37.5q0 18 -12 28.5t-32 10.5q-21 0 -35 -13.5t-14 -36.5q0 -43 45 -43z" />
    <glyph glyph-name="seven.numr" horiz-adv-x="315" 
d="M283 568h-154l18 102h295l-12 -66l-200 -320h-125z" />
    <glyph glyph-name="eight.numr" horiz-adv-x="379" 
d="M256 271q-71 0 -116 33.5t-45 82.5q0 70 76 106q-35 32 -35 71q0 51 44 85t106 34q66 0 108 -31.5t42 -79.5q0 -64 -63 -95q43 -37 43 -83q0 -54 -46.5 -88.5t-113.5 -34.5zM256 359q17 0 32.5 12.5t15.5 33.5q0 18 -11.5 29t-31.5 11q-21 0 -36 -13t-15 -33
q0 -17 12.5 -28.5t33.5 -11.5zM284 525q14 0 25.5 10.5t11.5 27.5q0 32 -34 32q-17 0 -27.5 -11.5t-10.5 -28.5q0 -30 35 -30z" />
    <glyph glyph-name="nine.numr" horiz-adv-x="354" 
d="M147 361q82 22 130 64q-19 -6 -45 -6q-52 0 -86.5 35t-34.5 85q0 63 49.5 103.5t119.5 40.5q74 0 118 -37.5t44 -98.5q0 -84 -73.5 -163.5t-186.5 -110.5zM275 498q18 0 31 11.5t16 30.5q1 3 1 11q0 17 -11.5 28.5t-30.5 11.5q-21 0 -35.5 -15t-14.5 -38q0 -18 12 -29
t32 -11z" />
    <glyph glyph-name="zero.osf" horiz-adv-x="530" 
d="M280 -14q-89 0 -146 65t-57 160q0 68 30.5 134.5t91 112.5t134.5 46q87 0 144.5 -64.5t57.5 -159.5q0 -122 -77 -208t-178 -86zM289 108q53 0 82 55t29 116q0 46 -20 74.5t-56 28.5q-45 0 -78 -48t-33 -121q0 -48 20.5 -76.5t55.5 -28.5z" />
    <glyph glyph-name="one.osf" horiz-adv-x="340" 
d="M198 306l-86 -51l-49 105l228 136h76l-87 -496h-136z" />
    <glyph glyph-name="two.osf" horiz-adv-x="490" 
d="M62 101q9 59 58 96.5t136 65.5q69 22 93.5 38t24.5 40q0 19 -17.5 30t-46.5 11q-62 0 -96 -69l-112 44q30 71 88.5 109t133.5 38q83 0 135.5 -42.5t52.5 -107.5q0 -64 -43 -105.5t-142 -72.5q-52 -18 -75.5 -31.5t-27.5 -28.5h246l-20 -116h-405z" />
    <glyph glyph-name="three.osf" horiz-adv-x="490" 
d="M227 -154q-85 0 -145 42.5t-79 113.5l122 59q22 -93 108 -93q43 0 72 26t29 67q0 35 -26.5 56.5t-72.5 26.5h-89l14 78l156 153h-197l20 115h390l-13 -72l-175 -169q59 -21 95.5 -68t36.5 -107q0 -98 -72 -163t-174 -65z" />
    <glyph glyph-name="four.osf" horiz-adv-x="525" 
d="M306 0h-281l13 76l400 420h77l-69 -390h87l-18 -106h-87l-28 -154h-122zM324 106l25 141l-135 -141h110z" />
    <glyph glyph-name="five.osf" horiz-adv-x="505" 
d="M227 -154q-85 0 -146 43.5t-79 114.5l121 60q23 -96 112 -96q44 0 74.5 32t30.5 80q0 37 -27 60t-73 23q-21 0 -42.5 -8.5t-30.5 -16.5l-66 40l91 312h334l-20 -115h-226l-29 -98q12 7 39 7q83 0 136 -56.5t53 -136.5q0 -105 -73.5 -175t-178.5 -70z" />
    <glyph glyph-name="six.osf" horiz-adv-x="525" 
d="M287 -14q-101 0 -159.5 58t-58.5 152q0 132 104.5 255t278.5 195l54 -99q-127 -54 -216 -148q24 11 51 11q85 0 140.5 -54t55.5 -133q0 -100 -74 -168.5t-176 -68.5zM294 104q42 0 73 31.5t31 75.5q0 36 -25.5 58.5t-67.5 22.5q-43 0 -71.5 -29t-28.5 -74q0 -37 24 -61
t65 -24z" />
    <glyph glyph-name="seven.osf" horiz-adv-x="485" 
d="M340 369h-245l21 121h425l-13 -75l-356 -569h-159z" />
    <glyph glyph-name="eight.osf" horiz-adv-x="540" 
d="M295 -14q-104 0 -168 53.5t-64 132.5q0 113 123 176q-47 44 -47 108q0 79 64 133.5t153 54.5t146.5 -48.5t57.5 -121.5q0 -97 -91 -152q67 -48 67 -132q0 -88 -70.5 -146t-170.5 -58zM298 100q41 0 71.5 27.5t30.5 69.5q0 36 -26 58t-68 22q-45 0 -74.5 -27t-29.5 -69
q0 -37 28.5 -59t67.5 -22zM345 387q31 0 54 21.5t23 55.5q0 30 -18.5 48t-50.5 18q-34 0 -56 -23.5t-22 -58.5q0 -28 20 -44.5t50 -16.5z" />
    <glyph glyph-name="nine.osf" horiz-adv-x="525" 
d="M96 -55q136 58 222 145q-21 -10 -51 -10q-85 0 -140.5 53.5t-55.5 133.5q0 103 73.5 170t178.5 67q99 0 157 -58t58 -152q0 -132 -106.5 -256t-279.5 -194zM302 198q43 0 73 29t30 74q0 36 -25.5 60.5t-66.5 24.5q-44 0 -73.5 -30.5t-29.5 -75.5q0 -37 26.5 -59.5
t65.5 -22.5z" />
    <glyph glyph-name="zero.tab" horiz-adv-x="566" 
d="M302 -14q-109 0 -171 75t-62 200q0 67 18.5 138t54 136.5t97 107t137.5 41.5q110 0 172.5 -75.5t62.5 -200.5q0 -184 -91.5 -303t-217.5 -119zM311 123q38 0 68 32t46 79.5t24 93t8 82.5q0 65 -22.5 101t-66.5 36q-57 0 -101 -80.5t-44 -209.5q0 -134 88 -134z" />
    <glyph glyph-name="one.tab" horiz-adv-x="566" 
d="M81 135h169l61 338l-131 -80l-55 116l292 173h76l-97 -547h153l-23 -135h-468z" />
    <glyph glyph-name="two.tab" horiz-adv-x="566" 
d="M75 125q14 78 68.5 131.5t155.5 94.5q90 39 124.5 68t34.5 68q0 30 -23.5 48t-62.5 18q-78 0 -118 -90l-124 47q79 174 249 174q103 0 165.5 -53t62.5 -134q0 -80 -54.5 -137t-178.5 -112q-140 -62 -151 -111h317l-24 -137h-464z" />
    <glyph glyph-name="three.tab" horiz-adv-x="566" 
d="M292 -14q-89 0 -152 41t-86 114l124 66q29 -90 119 -90q45 0 76.5 27t31.5 68q0 38 -32.5 63t-82.5 25h-89l14 77l174 168h-212l22 125h416l-14 -75l-193 -191q67 -23 105.5 -72.5t38.5 -112.5q0 -100 -76.5 -166.5t-183.5 -66.5z" />
    <glyph glyph-name="four.tab" horiz-adv-x="566" 
d="M347 100h-305l15 83l446 499h84l-81 -457h76l-22 -125h-76l-17 -100h-137zM369 225l31 171l-153 -171h122z" />
    <glyph glyph-name="five.tab" horiz-adv-x="566" 
d="M290 -14q-89 0 -152 41.5t-86 113.5l124 66q29 -92 118 -92q48 0 81 31.5t33 79.5q0 42 -30 68t-81 26q-39 0 -76 -26l-65 41l103 335h348l-22 -125h-238l-31 -100q16 4 29 4q92 0 151.5 -60t59.5 -148q0 -110 -78 -182.5t-188 -72.5z" />
    <glyph glyph-name="six.tab" horiz-adv-x="566" 
d="M314 -14q-110 0 -175.5 62.5t-65.5 161.5q0 138 116.5 275t301.5 212l61 -107q-171 -81 -243 -164q20 15 65 15q91 0 151 -61t60 -145q0 -105 -80 -177t-191 -72zM323 115q46 0 79.5 31.5t33.5 76.5q0 38 -28.5 63.5t-74.5 25.5q-48 0 -81.5 -30t-33.5 -75
q0 -39 31 -65.5t74 -26.5z" />
    <glyph glyph-name="seven.tab" horiz-adv-x="566" 
d="M430 537h-286l24 133h486l-14 -75l-410 -595h-171z" />
    <glyph glyph-name="eight.tab" horiz-adv-x="566" 
d="M312 -14q-113 0 -181.5 55t-68.5 137q0 62 35.5 112t96.5 77q-55 49 -55 117q0 84 69.5 142t166.5 58t159 -53t62 -129q0 -53 -28 -95t-77 -66q75 -55 75 -141q0 -92 -73.5 -153t-180.5 -61zM314 110q45 0 76 27.5t31 69.5q0 36 -28 58.5t-76 22.5t-77 -26t-29 -68
q0 -38 30.5 -61t72.5 -23zM362 412q36 0 61 22t25 57q0 30 -22.5 49.5t-57.5 19.5t-59.5 -23.5t-24.5 -58.5q0 -28 22 -47t56 -19z" />
    <glyph glyph-name="nine.tab" horiz-adv-x="566" 
d="M128 84q152 69 247 158q-33 -13 -64 -13q-91 0 -151 62t-60 147q0 104 80 175t192 71q109 0 174.5 -62t65.5 -161q0 -137 -118 -273.5t-305 -214.5zM354 358q46 0 79.5 30.5t33.5 74.5q0 40 -29 66t-76 26q-48 0 -81.5 -31t-33.5 -76q0 -39 32 -64.5t75 -25.5z" />
    <glyph glyph-name="zero.tabosf" horiz-adv-x="510" 
d="M270 -14q-89 0 -146 65t-57 160q0 68 30.5 134.5t91 112.5t134.5 46q87 0 144.5 -64.5t57.5 -159.5q0 -122 -77 -208t-178 -86zM279 108q53 0 82 55t29 116q0 46 -20 74.5t-56 28.5q-45 0 -78 -48t-33 -121q0 -48 20.5 -76.5t55.5 -28.5z" />
    <glyph glyph-name="one.tabosf" horiz-adv-x="510" 
d="M79 115h155l34 190l-120 -73l-49 107l258 157h78l-67 -381h137l-20 -115h-426z" />
    <glyph glyph-name="two.tabosf" horiz-adv-x="510" 
d="M67 101q9 59 58 96.5t136 65.5q69 22 93.5 38t24.5 40q0 19 -17.5 30t-46.5 11q-61 0 -96 -69l-112 44q30 71 88.5 109t133.5 38q83 0 135.5 -42.5t52.5 -107.5q0 -64 -43 -105.5t-142 -72.5q-52 -18 -75.5 -31.5t-27.5 -28.5h246l-20 -116h-405z" />
    <glyph glyph-name="three.tabosf" horiz-adv-x="510" 
d="M227 -154q-85 0 -145 42.5t-79 113.5l122 59q22 -93 108 -93q43 0 72 26t29 67q0 35 -26.5 56.5t-72.5 26.5h-89l14 78l156 153h-197l20 115h390l-13 -72l-175 -169q59 -21 95.5 -68t36.5 -107q0 -98 -72 -163t-174 -65z" />
    <glyph glyph-name="four.tabosf" horiz-adv-x="510" 
d="M296 0h-281l13 76l400 420h77l-69 -390h87l-18 -106h-87l-28 -154h-122zM314 106l25 141l-135 -141h110z" />
    <glyph glyph-name="five.tabosf" horiz-adv-x="510" 
d="M227 -154q-85 0 -146 43.5t-79 114.5l121 60q23 -96 112 -96q44 0 74.5 32t30.5 80q0 37 -27 60t-73 23q-21 0 -42.5 -8.5t-30.5 -16.5l-66 40l91 312h334l-20 -115h-226l-29 -98q12 7 39 7q83 0 136 -56.5t53 -136.5q0 -105 -73.5 -175t-178.5 -70z" />
    <glyph glyph-name="six.tabosf" horiz-adv-x="510" 
d="M277 -14q-101 0 -159.5 58t-58.5 152q0 132 104.5 255t278.5 195l54 -99q-127 -54 -216 -148q24 11 51 11q85 0 140.5 -54t55.5 -133q0 -100 -74 -168.5t-176 -68.5zM284 104q42 0 73 31.5t31 75.5q0 36 -25.5 58.5t-67.5 22.5q-43 0 -71.5 -29t-28.5 -74q0 -37 24 -61
t65 -24z" />
    <glyph glyph-name="seven.tabosf" horiz-adv-x="510" 
d="M360 369h-245l21 121h425l-13 -75l-356 -569h-159z" />
    <glyph glyph-name="eight.tabosf" horiz-adv-x="510" 
d="M280 -14q-104 0 -168 53.5t-64 132.5q0 113 123 176q-47 44 -47 108q0 79 64 133.5t153 54.5t146.5 -48.5t57.5 -121.5q0 -97 -91 -152q67 -48 67 -132q0 -88 -70.5 -146t-170.5 -58zM283 100q41 0 71.5 27.5t30.5 69.5q0 36 -26 58t-68 22q-45 0 -74.5 -27t-29.5 -69
q0 -37 28.5 -59t67.5 -22zM330 387q31 0 54 21.5t23 55.5q0 30 -18.5 48t-50.5 18q-34 0 -56 -23.5t-22 -58.5q0 -28 20 -44.5t50 -16.5z" />
    <glyph glyph-name="nine.tabosf" horiz-adv-x="510" 
d="M86 -55q136 58 222 145q-21 -10 -51 -10q-85 0 -140.5 53.5t-55.5 133.5q0 103 73.5 170t178.5 67q99 0 157 -58t58 -152q0 -132 -106.5 -256t-279.5 -194zM292 198q43 0 73 29t30 74q0 36 -25.5 60.5t-66.5 24.5q-44 0 -73.5 -30.5t-29.5 -75.5q0 -37 26.5 -59.5
t65.5 -22.5z" />
    <glyph glyph-name="foundryicon" horiz-adv-x="1538" 
d="M221 429h-71v31h178v-31h-72v-199h-35v199zM338 169q-8 0 -10 1v28q23 0 31 20l6 16l-63 159h37l44 -116l44 116h37l-77 -190q-16 -34 -49 -34zM488 393h24l9 -19q19 22 48 22q32 0 54.5 -24.5t22.5 -59.5q0 -36 -22.5 -60.5t-54.5 -24.5q-29 0 -47 21v-79h-34v224z
M566 258q19 0 33 15.5t14 38.5q0 21 -14 36.5t-33 15.5q-20 0 -33.5 -15.5t-13.5 -36.5q0 -23 13.5 -38.5t33.5 -15.5zM751 227q-32 0 -55 24.5t-23 60.5q0 35 22.5 59.5t55.5 24.5q32 0 54 -24t22 -59q0 -1 -0.5 -4t-0.5 -5v-6h-119q2 -17 14.5 -29t29.5 -12q27 0 37 17h35
q-18 -47 -72 -47zM795 325q-1 17 -14.5 28.5t-29.5 11.5t-29 -11t-15 -29h88zM882 429h-71v31h178v-31h-72v-199h-35v199zM999 169q-8 0 -10 1v28q23 0 31 20l6 16l-63 159h37l44 -116l44 116h37l-77 -190q-16 -34 -49 -34zM1149 393h24l9 -19q19 22 48 22q32 0 54.5 -24.5
t22.5 -59.5q0 -36 -22.5 -60.5t-54.5 -24.5q-29 0 -47 21v-79h-34v224zM1227 258q19 0 33 15.5t14 38.5q0 21 -14 36.5t-33 15.5q-20 0 -33.5 -15.5t-13.5 -36.5q0 -23 13.5 -38.5t33.5 -15.5zM1412 227q-32 0 -55 24.5t-23 60.5q0 35 22.5 59.5t55.5 24.5q32 0 54 -24
t22 -59q0 -1 -0.5 -4t-0.5 -5v-6h-119q2 -17 14.5 -29t29.5 -12q27 0 37 17h35q-18 -47 -72 -47zM1456 325q-1 17 -14.5 28.5t-29.5 11.5t-29 -11t-15 -29h88z" />
    </font>
</defs>
</svg>
